Статистика раздачи
Размер:  2,56 GB   |    Зарегистрирован:  7 месяцев 8 дней   |    Скачан:  0 раз

Полного источника не было: Никогда

 
   
 
 

NINJA ®

Пол:
Не указан
Стаж:
7 месяцев 9 дней
Сообщений:
84

Ты молодчина, Чарли Браун / You're a Good Sport, Charlie Brown
Ты самый лучший, Чарли Браун / You're the Greatest, Charlie Brown

Страна: США
Жанр: мультфильм, комедия, семейный
Продолжительность: 00:24:07 + 00:24:29
Год выпуска: 1975, 1979
Перевод: Профессиональный (многоголосый закадровый)
Русские субтитры: есть
Режиссёр: Фил Роман / Phil Roman
Описание: Этот диск содержит две серии приключений компании друзей "Peanuts".
Ты молодчина, Чарли Браун: Заводите двигатели! Начинается сезон мотогонок, но мало кто отважится соперничать с Мятной Патти и Чудом в маске - бесшабашным псом и сорвиголовой по кличке Снупи. Если Чарли Браун под несчастливым номером 13 будет следовать пословице "тише едешь, дальше будешь" (и удержит на голове шлем), у него появится шанс выиграть Мотокросс!
Ты самый лучший, Чарли Браун: Чтобы победить в десятиборье, Чарли Брауну необходимы воля к победе и командный дух, однако помимо этого юному олимпийцу надо очень внимательно следить за дорогой!
Это подарочное издание потрясающей детской мультипликационной передачи-победительницы премии "Эмми", веселой и динамичной от старта до финиша, в новом качестве с восстановленным изображением и звуком.
Доп. материалы:
Приободрись и продолжай, Чарли Браун: О том, как страсть всей жизни к мотоспорту его сына, вдохновила сценариста Чарльза Шульца на создание этого мультфильма.
Продолжительность: 00:11:45
Перевод: Субтитры
Доп. информация: Издание Universal Pictures Rus.
Семпл: http://multi-up.com/936212
Качество: DVD5
Формат: DVD-video
Видео: PAL 4:3 (720x576) VBR
Аудио: English - Dolby AC3, 1 ch, 192 kbps
Аудио 2: Russian - Dolby AC3, 1 ch, 192 kbps
Аудио 3: Espanol - Dolby AC3, 1 ch, 192 kbps
Субтитры: English, Arabic, Nederlands, Russian, Espanol.

DVDInfo

Title: YOURE_GOOD_SPORT_CHARLIE_BROWN
Size: 2.56 Gb ( 2 684 198,00 KBytes ) - DVD-5
Enabled regions: 1, 2, 3, 4, 5, 6, 7, 8
VTS_01 :
Play Length: 00:48:35+00:00:12+00:24:07+{00:24:28}+00:11:45
Video: PAL 4:3 (720x576) VBR
Audio:
English, AC3, 1/0 (C) ch, 192 kbps, Delay -8 mSec
Russian, AC3, 1/0 (C) ch, 192 kbps, Delay -8 mSec
Espanol, AC3, 1/0 (C) ch, 192 kbps, Delay -8 mSec
English,
Subtitles:
English
Arabic
Nederlands
Russian
Espanol

MediaInfo

Полное имя : C:\YOURE_GOOD_SPORT_CHARLIE_BROWN\VIDEO_TS\VTS_01_0.VOB
Формат : MPEG-PS
Размер файла : 36,4 Мбайт
Продолжительность : 2 м. 26 с.
Режим общего битрейта : Переменный
Общий поток : 2080 Кбит/сек
Видео
Идентификатор : 224 (0xE0)
Формат : MPEG Video
Версия формата : Version 2
Профиль формата : Main@Main
Параметр BVOP формата : Нет
Параметр матрицы формата : Выборочная
Продолжительность : 40 мс.
Вид битрейта : Переменный
Битрейт : 1590 Кбит/сек
Максимальный битрейт : 9800 Кбит/сек
Ширина : 720 пикселей
Высота : 576 пикселей
Соотношение сторон : 16:9
Частота кадров : 25,000 кадров/сек
Стандарт вещания : PAL
Цветовое пространство : YUV
Субдискретизация насыщенности : 4:2:0
Битовая глубина : 8 бит
Тип развёртки : Прогрессивная
Порядок развёртки : Верхнее поле первое
Метод сжатия : С потерями
Бит/(Пиксели*Кадры) : 0.153
TimeCode_FirstFrame : 01:00:00:00
TimeCode_Source : Group of pictures header
Размер потока : 7,76 Кбайт (0%)
Основные цвета : BT.601 PAL
Характеристики трансфера : BT.470 System B, BT.470 System G
Коэффициенты матрицы : BT.601
Аудио
Идентификатор : 189 (0xBD)-128 (0x80)
Формат : AC-3
Формат/Информация : Audio Coding 3
Расширение режима : CM (complete main)
Параметр Endianness формата : Big
Режим смешивания : DVD-Video
Продолжительность : 2 м. 26 с.
Вид битрейта : Постоянный
Битрейт : 448 Кбит/сек
Каналы : 2 канала
Расположение каналов : Front: L R
Частота : 48,0 КГц
Битовая глубина : 16 бит
Метод сжатия : С потерями
Размер потока : 7,84 Мбайт (22%)
Текст #1
Идентификатор : 189 (0xBD)-32 (0x20)
Формат : RLE
Формат/Информация : Run-length encoding
Режим смешивания : DVD-Video
Текст #2
Идентификатор : 189 (0xBD)-33 (0x21)
Формат : RLE
Формат/Информация : Run-length encoding
Режим смешивания : DVD-Video
Меню
Общее
Полное имя : C:\YOURE_GOOD_SPORT_CHARLIE_BROWN\VIDEO_TS\VTS_01_1.VOB
Формат : MPEG-PS
Размер файла : 1024 Мбайт
Продолжительность : 23 м.
Режим общего битрейта : Переменный
Общий поток : 6202 Кбит/сек
Видео
Идентификатор : 224 (0xE0)
Формат : MPEG Video
Версия формата : Version 2
Профиль формата : Main@Main
Параметр BVOP формата : Да
Параметр матрицы формата : Выборочная
Параметр GOP формата : Variable
Продолжительность : 23 м.
Вид битрейта : Переменный
Битрейт : 5503 Кбит/сек
Максимальный битрейт : 9800 Кбит/сек
Ширина : 720 пикселей
Высота : 576 пикселей
Соотношение сторон : 4:3
Частота кадров : 25,000 кадров/сек
Стандарт вещания : PAL
Цветовое пространство : YUV
Субдискретизация насыщенности : 4:2:0
Битовая глубина : 8 бит
Тип развёртки : Прогрессивная
Порядок развёртки : Верхнее поле первое
Метод сжатия : С потерями
Бит/(Пиксели*Кадры) : 0.531
TimeCode_FirstFrame : 00:59:59:00
TimeCode_Source : Group of pictures header
Размер потока : 909 Мбайт (89%)
Аудио #1
Идентификатор : 189 (0xBD)-128 (0x80)
Формат : AC-3
Формат/Информация : Audio Coding 3
Расширение режима : CM (complete main)
Параметр Endianness формата : Big
Режим смешивания : DVD-Video
Продолжительность : 23 м.
Вид битрейта : Постоянный
Битрейт : 192 Кбит/сек
Каналы : 1 канал
Расположение каналов : Front: C
Частота : 48,0 КГц
Битовая глубина : 16 бит
Метод сжатия : С потерями
Задержка видео : -8 мс.
Размер потока : 31,7 Мбайт (3%)
Аудио #2
Идентификатор : 189 (0xBD)-129 (0x81)
Формат : AC-3
Формат/Информация : Audio Coding 3
Расширение режима : CM (complete main)
Параметр Endianness формата : Big
Режим смешивания : DVD-Video
Продолжительность : 23 м.
Вид битрейта : Постоянный
Битрейт : 192 Кбит/сек
Каналы : 1 канал
Расположение каналов : Front: C
Частота : 48,0 КГц
Битовая глубина : 16 бит
Метод сжатия : С потерями
Задержка видео : -8 мс.
Размер потока : 31,7 Мбайт (3%)
Аудио #3
Идентификатор : 189 (0xBD)-130 (0x82)
Формат : AC-3
Формат/Информация : Audio Coding 3
Расширение режима : CM (complete main)
Параметр Endianness формата : Big
Режим смешивания : DVD-Video
Продолжительность : 23 м.
Вид битрейта : Постоянный
Битрейт : 192 Кбит/сек
Каналы : 1 канал
Расположение каналов : Front: C
Частота : 48,0 КГц
Битовая глубина : 16 бит
Метод сжатия : С потерями
Задержка видео : -8 мс.
Размер потока : 31,7 Мбайт (3%)
Текст #1
Идентификатор : 189 (0xBD)-32 (0x20)
Формат : RLE
Формат/Информация : Run-length encoding
Режим смешивания : DVD-Video
Текст #2
Идентификатор : 189 (0xBD)-33 (0x21)
Формат : RLE
Формат/Информация : Run-length encoding
Режим смешивания : DVD-Video
Текст #3
Идентификатор : 189 (0xBD)-34 (0x22)
Формат : RLE
Формат/Информация : Run-length encoding
Режим смешивания : DVD-Video
Текст #4
Идентификатор : 189 (0xBD)-35 (0x23)
Формат : RLE
Формат/Информация : Run-length encoding
Режим смешивания : DVD-Video
Текст #5
Идентификатор : 189 (0xBD)-36 (0x24)
Формат : RLE
Формат/Информация : Run-length encoding
Режим смешивания : DVD-Video
Меню
Общее
Полное имя : C:\YOURE_GOOD_SPORT_CHARLIE_BROWN\VIDEO_TS\VTS_01_2.VOB
Формат : MPEG-PS
Размер файла : 1024 Мбайт
Режим общего битрейта : Переменный
Видео
Идентификатор : 224 (0xE0)
Формат : MPEG Video
Версия формата : Version 2
Профиль формата : Main@Main
Параметр BVOP формата : Да
Параметр матрицы формата : Выборочная
Параметр GOP формата : Variable
Вид битрейта : Переменный
Максимальный битрейт : 9800 Кбит/сек
Ширина : 720 пикселей
Высота : 576 пикселей
Соотношение сторон : 4:3
Частота кадров : 25,000 кадров/сек
Стандарт вещания : PAL
Цветовое пространство : YUV
Субдискретизация насыщенности : 4:2:0
Битовая глубина : 8 бит
Тип развёртки : Прогрессивная
Порядок развёртки : Верхнее поле первое
Метод сжатия : С потерями
TimeCode_FirstFrame : 01:23:04:03
TimeCode_Source : Group of pictures header
Аудио #1
Идентификатор : 189 (0xBD)-128 (0x80)
Формат : AC-3
Формат/Информация : Audio Coding 3
Расширение режима : CM (complete main)
Параметр Endianness формата : Big
Режим смешивания : DVD-Video
Вид битрейта : Постоянный
Битрейт : 192 Кбит/сек
Каналы : 1 канал
Расположение каналов : Front: C
Частота : 48,0 КГц
Битовая глубина : 16 бит
Метод сжатия : С потерями
Задержка видео : -376 мс.
Аудио #2
Идентификатор : 189 (0xBD)-129 (0x81)
Формат : AC-3
Формат/Информация : Audio Coding 3
Расширение режима : CM (complete main)
Параметр Endianness формата : Big
Режим смешивания : DVD-Video
Вид битрейта : Постоянный
Битрейт : 192 Кбит/сек
Каналы : 1 канал
Расположение каналов : Front: C
Частота : 48,0 КГц
Битовая глубина : 16 бит
Метод сжатия : С потерями
Задержка видео : -376 мс.
Аудио #3
Идентификатор : 189 (0xBD)-130 (0x82)
Формат : AC-3
Формат/Информация : Audio Coding 3
Расширение режима : CM (complete main)
Параметр Endianness формата : Big
Режим смешивания : DVD-Video
Вид битрейта : Постоянный
Битрейт : 192 Кбит/сек
Каналы : 1 канал
Расположение каналов : Front: C
Частота : 48,0 КГц
Битовая глубина : 16 бит
Метод сжатия : С потерями
Задержка видео : -376 мс.
Текст #1
Идентификатор : 189 (0xBD)-32 (0x20)
Формат : RLE
Формат/Информация : Run-length encoding
Режим смешивания : DVD-Video
Задержка видео : 320 мс.
Текст #2
Идентификатор : 189 (0xBD)-33 (0x21)
Формат : RLE
Формат/Информация : Run-length encoding
Режим смешивания : DVD-Video
Задержка видео : 320 мс.
Текст #3
Идентификатор : 189 (0xBD)-34 (0x22)
Формат : RLE
Формат/Информация : Run-length encoding
Режим смешивания : DVD-Video
Задержка видео : 320 мс.
Текст #4
Идентификатор : 189 (0xBD)-35 (0x23)
Формат : RLE
Формат/Информация : Run-length encoding
Режим смешивания : DVD-Video
Задержка видео : 320 мс.
Текст #5
Идентификатор : 189 (0xBD)-36 (0x24)
Формат : RLE
Формат/Информация : Run-length encoding
Режим смешивания : DVD-Video
Задержка видео : 320 мс.
Меню
Общее
Полное имя : C:\YOURE_GOOD_SPORT_CHARLIE_BROWN\VIDEO_TS\VTS_01_3.VOB
Формат : MPEG-PS
Размер файла : 533 Мбайт
Режим общего битрейта : Переменный
Видео
Идентификатор : 224 (0xE0)
Формат : MPEG Video
Версия формата : Version 2
Профиль формата : Main@Main
Параметр BVOP формата : Да
Параметр матрицы формата : Выборочная
Параметр GOP формата : Variable
Вид битрейта : Переменный
Максимальный битрейт : 9800 Кбит/сек
Ширина : 720 пикселей
Высота : 576 пикселей
Соотношение сторон : 4:3
Частота кадров : 25,000 кадров/сек
Стандарт вещания : PAL
Цветовое пространство : YUV
Субдискретизация насыщенности : 4:2:0
Битовая глубина : 8 бит
Тип развёртки : Чересстрочная
Порядок развёртки : Верхнее поле первое
Метод сжатия : С потерями
TimeCode_FirstFrame : 01:21:46:12
TimeCode_Source : Group of pictures header
Аудио #1
Идентификатор : 189 (0xBD)-128 (0x80)
Формат : AC-3
Формат/Информация : Audio Coding 3
Расширение режима : CM (complete main)
Параметр Endianness формата : Big
Режим смешивания : DVD-Video
Вид битрейта : Постоянный
Битрейт : 192 Кбит/сек
Каналы : 1 канал
Расположение каналов : Front: C
Частота : 48,0 КГц
Битовая глубина : 16 бит
Метод сжатия : С потерями
Задержка видео : -176 мс.
Аудио #2
Идентификатор : 189 (0xBD)-129 (0x81)
Формат : AC-3
Формат/Информация : Audio Coding 3
Расширение режима : CM (complete main)
Параметр Endianness формата : Big
Режим смешивания : DVD-Video
Вид битрейта : Постоянный
Битрейт : 192 Кбит/сек
Каналы : 1 канал
Расположение каналов : Front: C
Частота : 48,0 КГц
Битовая глубина : 16 бит
Метод сжатия : С потерями
Задержка видео : -176 мс.
Аудио #3
Идентификатор : 189 (0xBD)-130 (0x82)
Формат : AC-3
Формат/Информация : Audio Coding 3
Расширение режима : CM (complete main)
Параметр Endianness формата : Big
Режим смешивания : DVD-Video
Вид битрейта : Постоянный
Битрейт : 192 Кбит/сек
Каналы : 1 канал
Расположение каналов : Front: C
Частота : 48,0 КГц
Битовая глубина : 16 бит
Метод сжатия : С потерями
Задержка видео : -176 мс.
Текст
Идентификатор : 189 (0xBD)-32 (0x20)
Формат : RLE
Формат/Информация : Run-length encoding
Режим смешивания : DVD-Video
Задержка видео : 4 с. 440 мс.

Скриншоты меню

Скриншоты

[cybertorrent.ru].t1761.torrent 
Торрент: Зарегистрирован [ 2018-02-16 08:44 ] · CA6DFC3D7766D02E7BB44854FB5D2FD8980371D7

Скачать .torrent

Скачать

14 KB

Статус: проверено
Скачан: 0 раз
Размер: 2,56 GB
Профиль [ЛС]
Показать сообщения:    

Текущее время: 24-Сен 18:16

Часовой пояс: UTC ± 0



Вы не можете начинать темы
Вы не можете отвечать на сообщения
Вы не можете редактировать свои сообщения
Вы не можете удалять свои сообщения
Вы не можете голосовать в опросах
Вы не можете прикреплять файлы к сообщениям
Вы можете скачивать файлы
Torrents24.ru открытый BitTorrent Torrents24.pl открытый BitTorrent CyberTorrent.ru открытый BitTorrent BtList.ru рейтинг BitTorrent трекеров Яндекс.Метрика