Статистика раздачи
Размер:  4,87 GB   |    Зарегистрирован:  7 месяцев 5 дней   |    Скачан:  0 раз

Полного источника не было: Никогда

 
   
 
 

android ®

Пол:
Не указан
Стаж:
7 месяцев 6 дней
Сообщений:
79

7.12.14 - Добавлена 25 и 26 серия . Сезон окончен.Черепашки-ниндзя / Teenage Mutant Ninja Turtles- Год выпуска: 2013
Страна: США
Жанр: мультфильм, фантастика, боевик, комедия, приключения, ...
Продолжительность: 00:23:37
Перевод: 1)Любительский (многоголосый закадровый) ZM-Show
Субтитры нет
Режиссер: Juan Jose Meza-Leon, Алан Ван, Майкл Чанг
Сценарий: Джошуа Стернин, Джеффри Вентимилья, Кенни Байрли, ...
Продюсер: Джошуа Стернин, Питер Хатингс, МакГрегор Миддлтон, ...
Композитор: Себастьян Эванс
В ролях: Хун Ли / Hoon Lee (Splinter, озвучка), Шон Эстин / Sean Astin (Raphael, озвучка), Джейсон Биггз / Jason Biggs (Leonardo, озвучка), Грег Сайпс / Greg Cipes (Michelangelo, озвучка), Роб Полсен / Rob Paulsen (Donatello, озвучка), Мэй Уитман / Mae Whitman (April O'Neil, озвучка), Кевин Майкл Ричардсон / Kevin Michael Richardson (The Shredder, озвучка), Нолан Норт / Nolan North (Kraang #1, озвучка)
--Ссылка на предыдущие и альтернативные раздачи
Качество: WEB-DLRip
Формат: AVI
Видео кодек: XviD
Аудио кодеk: AC3
Видео: 624x352 (16:9), 23.976 fps,XviD 73, ~908 Kbps
Аудио: Аудио #1: MP3, 128 Kbps, 48.0 KHz, 2 ch RUS ZM-Show
Аудио #2: MP3, 128 Kbps, 48.0 KHz, 2 ch ENG Original

МедиаИнфо

[codeОбщее
Полное имя : E:\T.M.N.T.S02\tmnt01.avi
Формат : AVI
Формат/Информация : Audio Video Interleave
Размер файла : 191 Мбайт
Продолжительность : 22 м.
Общий поток : 1178 Кбит/сек
Программа кодирования : VirtualDubMod 1.5.10.3 | www.virtualdub-fr.org || (build 2550/release)
Библиотека кодирования : VirtualDubMod build 2550/release
Видео
Идентификатор : 0
Формат : MPEG-4 Visual
Профиль формата : Advanced Simple@L5
Параметр BVOP формата : 1
Параметр QPel формата : Нет
Параметр GMC формата : Без точки перехода
Параметр матрицы формата : Выборочная
Идентификатор кодека : XVID
Идентификатор кодека/Подсказка : XviD
Продолжительность : 22 м.
Битрейт : 908 Кбит/сек
Ширина : 624 пикселя
Высота : 352 пикселя
Соотношение сторон : 16:9
Частота кадров : 23,976 кадра/сек
Цветовое пространство : YUV
Субдискретизация насыщенности : 4:2:0
Битовая глубина : 8 бит
Тип развёртки : Прогрессивная
Метод сжатия : С потерями
Бит/(Пиксели*Кадры) : 0.172
Размер потока : 148 Мбайт (77%)
Библиотека кодирования : XviD 73
Аудио #1
Идентификатор : 1
Формат : MPEG Audio
Версия формата : Version 1
Профиль формата : Layer 3
Идентификатор кодека : 55
Идентификатор кодека/Подсказка : MP3
Продолжительность : 22 м.
Вид битрейта : Постоянный
Битрейт : 128 Кбит/сек
Каналы : 2 канала
Частота : 48,0 КГц
Метод сжатия : С потерями
Размер потока : 20,8 Мбайт (11%)
Выравнивание : Соединение по промежуткам
Продолжительность промежутка : 42 мс. (1,00 видеокадр)
Время предзагрузки промежутка : 504 мс.
Библиотека кодирования : LAME3.99r
Настройки программы : -m s -V 4 -q 2 -lowpass 17 -b 128
Аудио #2
Идентификатор : 2
Формат : MPEG Audio
Версия формата : Version 1
Профиль формата : Layer 3
Идентификатор кодека : 55
Идентификатор кодека/Подсказка : MP3
Продолжительность : 22 м.
Вид битрейта : Постоянный
Битрейт : 128 Кбит/сек
Каналы : 2 канала
Частота : 48,0 КГц
Метод сжатия : С потерями
Размер потока : 20,8 Мбайт (11%)
Выравнивание : Соединение по промежуткам
Продолжительность промежутка : 42 мс. (1,00 видеокадр)
Время предзагрузки промежутка : 504 мс.
Библиотека кодирования : LAME3.99r
Настройки программы : -m s -V 4 -q 2 -lowpass 17 -b 128

Список серий


1. Ситуация С Мутацией / The Mutation Situation
2. Нападение Белканоидов /Нашествие Белканоидов/Вторжение зараженных белок/ Invasion Of The Squirrelanoids
3. Поймай Лидера /Следуй за лидером/ Follow the Leader
4. Сорвавшийся С Цепи /Мутагенный человек на свободе/Мутагенный человек спущен с привязи/ Mutagen Man Unleashed
5. Майки Получает По Панцирю /Микки в прыщах/ Mikey Gets Shellacne
6. Цель: Эйприл О'Нил / Target: April O'Neil
7. Режь И Уничтожай /Слэш и разрушение/Круши и ломай/ Slash And Destroy
8. Хороший, Плохой И Кейси Джонс / The Good, The Bad And Casey Jones
9. Заговор Креенгов / The Kraang Conspiracy
10. Гигантский Гриб /Грибище-гигантище/ Fungus Humungous
11. Переделка Металлоголового /Изменение Металлоголового/ Metalhead Rewired
12. Из Крыс И Людей /Про крыс и людей/О крысах и людях/ Of Rats And Men
13-14. Черви-Землетрясы! / Черветрясение/Wormquake!
15. Лабиринты И Мутанты / Mazes & Mutants
16. Одинокая Мутация Бакстера Стокмана / The Lonely Mutation Of Baxter Stockman
17. Тритерминированный / Ньютролизованные"/Newtralized
18. Пиццаликий(ый) /Лицо пиццы/ Pizza Face
19. Гнев Тигриного Когтя / The Wrath Of Tiger Claw
20. Легенда О Куро Кабуто / The Legend Of The Kuro Kabuto
21. План 10 / Plan 10
22. Мое Отмщение /Моя месть/Месть является Моей/ Vengeance Is Mine
23 История призрака китайского квартала"/ "A chinatown ghost story"
24 В Измерении Х/Внутрь Измерения X/ Into Dimension X
25-26 Вторжение/ Invasion

Скриншоты

Автор рипа: Semak
[cybertorrent.ru].t1762.torrent 
Торрент: Зарегистрирован [ 2018-02-16 08:44 ] · 95C0B5FBA3F0FCD8D24E3531ADADF956DD2D37A9

Скачать .torrent

Скачать

196 KB

Статус: проверено
Скачан: 0 раз
Размер: 4,87 GB
Профиль [ЛС]
Показать сообщения:    

Текущее время: 21-Сен 18:22

Часовой пояс: UTC ± 0



Вы не можете начинать темы
Вы не можете отвечать на сообщения
Вы не можете редактировать свои сообщения
Вы не можете удалять свои сообщения
Вы не можете голосовать в опросах
Вы не можете прикреплять файлы к сообщениям
Вы можете скачивать файлы
Torrents24.ru открытый BitTorrent Torrents24.pl открытый BitTorrent CyberTorrent.ru открытый BitTorrent BtList.ru рейтинг BitTorrent трекеров Яндекс.Метрика