Статистика раздачи
Размер:  1,46 GB   |    Зарегистрирован:  6 месяцев 1 день   |    Скачан:  0 раз

Полного источника не было: Никогда

 
   
 
 

lom ®

Пол:
Не указан
Стаж:
6 месяцев 1 день
Сообщений:
160

Новый год в компании с Юрием Башметом
Год выпуска: 2014
Жанр: музыкальный
Продолжительность: 02:27:36
Описание: Юрий Башмет и его друзья-музыканты встречают гостей в эфире канала "Культура". Программа содержит выступление президента.
Ведущие: Алла Сигалова, Дарья Спиридонова, Святослав Бэлза.
Принимают участие: Государственный симфонический оркестр "Новая Россия" - художественный руководитель и главный дирижер Юрий Башмет; Камерный ансамбль "Солисты Москвы" - художественный руководитель и главный дирижер Юрий Башмет; Кубанский казачий хор - художественный руководитель Виктор Захарченко; Государственный академический русский народный хор имени М.Е. Пятницкого - художественный руководитель Александра Пермякова; Государственный академический, Заслуженный ансамбль танца Дагестана "Лезгинка" - художественный руководитель Зулумхан Хангереев; Московский джазовый оркестр под управлением Игоря Бутмана; Оркестр креольского танго под управлением Андрея Макаревича; артисты Цирка "Базиллиум" - художественный руководитель Василий Деменчуков; артисты театра "Геликон-опера" - художественный руководитель Дмитрий Бертман; Детский хор Всероссийской Государственной телевизионной и радиовещательной компании - художественный руководитель Елена Шумилова.
Солисты: Егор Дружинин, Ильдар Абдразаков, Диана Арбенина, Сергей Полунин, Денис Мацуев, Андрей Иванов, Дмитрий Севастьянов, Алексей Марков, Юрий Башмет, Игорь Бутман, Севара, Карина Кожевникова, Алина Ростоцкая, Асет Самраилова, Светлана Маринченко, Александра Могилевич, Дарья Соколова, Братья Бондаренко, Анна Тихомирова, Артем Овчаренко, Мария Гулегина, Александр Бузлов, Алена Баева, Нани Брегвадзе, Эка Мамаладзе, Наталья Кутателадзе, Ксения Башмет, Иван Рудин, Пелагея, Ульяна Лопаткина, Аскар Абдразаков, Андрей Макаревич, Александр Розенбаум, Вероника Джиоева.
Источник в формете mkv с более высоким качеством http://cybertorrent.ru/viewtopic.php?t=4629306
качество: TVRip
формат: AVI
Видео: Xvid 720x408 25fps 1282kbps
Аудио: MP3 48000Hz stereo 128kbps

MediaInfo

Format : AVI
Format/Info : Audio Video Interleave
File size : 1.46 GiB
Duration : 2h 27mn
Overall bit rate : 1 420 Kbps
Writing application : VirtualDubMod 1.5.10.3 | www.virtualdub-fr.org || (build 2550/release)
Writing library : VirtualDubMod build 2550/release
Video
ID : 0
Format : MPEG-4 Visual
Format profile : Advanced Simple@L5
Format settings, BVOP : Yes
Format settings, QPel : No
Format settings, GMC : No warppoints
Format settings, Matrix : Default (MPEG)
Codec ID : XVID
Codec ID/Hint : XviD
Duration : 2h 27mn
Bit rate : 1 282 Kbps
Width : 720 pixels
Height : 408 pixels
Display aspect ratio : 16:9
Frame rate : 25.000 fps
Color space : YUV
Chroma subsampling : 4:2:0
Bit depth : 8 bits
Scan type : Progressive
Compression mode : Lossy
Bits/(Pixel*Frame) : 0.175
Stream size : 1.32 GiB (90%)
Writing library : XviD 1.2.1 (UTC 2008-12-04)
Audio
ID : 1
Format : MPEG Audio
Format version : Version 1
Format profile : Layer 3
Codec ID : 55
Codec ID/Hint : MP3
Duration : 2h 27mn
Bit rate mode : Constant
Bit rate : 128 Kbps
Channel(s) : 2 channels
Sampling rate : 48.0 KHz
Compression mode : Lossy
Stream size : 135 MiB (9%)
Alignment : Aligned on interleaves
Interleave, duration : 40 ms (1.00 video frame)
Interleave, preload duration : 504 ms
Writing library : LAME3.99r
Encoding settings : -m s -V 4 -q 2 -lowpass 17 -b 128

Скриншоты

[cybertorrent.ru].t1763.torrent 
Торрент: Зарегистрирован [ 2018-02-16 08:44 ] · 43980070FC9A8879A77C882FED1F1BBA8133E245

Скачать .torrent

Скачать

15 KB

Статус: проверено
Скачан: 0 раз
Размер: 1,46 GB
Профиль [ЛС]
Показать сообщения:    

Текущее время: 17-Авг 09:21

Часовой пояс: UTC ± 0



Вы не можете начинать темы
Вы не можете отвечать на сообщения
Вы не можете редактировать свои сообщения
Вы не можете удалять свои сообщения
Вы не можете голосовать в опросах
Вы не можете прикреплять файлы к сообщениям
Вы можете скачивать файлы
Torrents24.ru открытый BitTorrent Torrents24.pl открытый BitTorrent CyberTorrent.ru открытый BitTorrent BtList.ru рейтинг BitTorrent трекеров Яндекс.Метрика