Статистика раздачи
Размер:  1,37 GB   |    Зарегистрирован:  3 месяца 6 дней   |    Скачан:  0 раз
Сидов:  19  [  0 KB/s  ]   Личеров:  2  [  0 KB/s  ]  
 
   
 
 

lopster ®

Пол:
Не указан
Стаж:
3 месяца 6 дней
Сообщений:
612

Осторожно! Вход разрешён
Жанр: Мелодрама
Год выпуска: 2016
Продолжительность: 01:33:23
Режиссёр: Алексей Богданов
В ролях: Ксения Скакун, Антон Филипенко, Андрей Гульнев, Анастасия Тюнина, Денис Портнов, Юрий Евдокимов, Евгений Добряков, Сергей Евдокимов
Описание: Владимир — преуспевающий бизнесмен, у него есть невеста, они собираются на Мальдивы. Но в последнее время Владимира что-то гложет, он и сам не понимает, что именно. Внезапно он откладывает отпуск и решает поехать в свой родной город, чтобы вспомнить молодость и повидаться со старыми друзьями.Там Владимир узнает, что недавно в город вернулась его одноклассница Анна, в которую он был без памяти влюблен. В школе Анна была первой красавицей, к тому обладала незаурядным литературными способностями. Девушке прочили блестящее будущее. Но когда на выпускном Владимир признался ей в своих чувствах, она жестоко посмеялась над ним и унизила перед всем классом.Теперь все изменилось. Анна не стала известной писательницей. Она не замужем и работает простой продавщицей в книжном магазине. Владимир же, напротив, теперь богатый и успешный мужчина. Жизнь подарила ему шанс поквитаться с Анной. Воспользуется ли он им?
Сэмпл: http://multi-up.com/1140554
Качество видео: HDTVRip
Формат видео: AVI
Видео: 720x400 (16:9), 25.000 fps, XviD build 73, 1900 Kbps, 0.26 bits/pixel
Аудио: 48 kHz, AC3 Dolby Digital, 2 ch, 192 Kbps-Релиз-группа: -

MediaInfo

General
Complete name : Downloads\Осторожно! Вход разрешен..2016.HDTVRip.Files-x.avi
Format : AVI
Format/Info : Audio Video Interleave
File size : 1.37 GiB
Duration : 1h 33mn
Overall bit rate : 2 101 Kbps
Writing application : VirtualDubMod 1.5.10.3 | www.virtualdub-fr.org || (build 2550/release)
Writing library : VirtualDubMod build 2550/release
Video #0
ID : 0
Format : MPEG-4 Visual
Format profile : Advanced Simple@L5
Format settings, BVOP : 1
Format settings, QPel : No
Format settings, GMC : No warppoints
Format settings, Matrix : Custom
Codec ID : XVID
Codec ID/Hint : XviD
Duration : 1h 33mn
Bit rate : 1 900 Kbps
Width : 720 pixels
Height : 400 pixels
Display aspect ratio : 16:9
Frame rate : 25.000 fps
Color space : YUV
Chroma subsampling : 4:2:0
Bit depth : 8 bits
Scan type : Progressive
Compression mode : Lossy
Bits/(Pixel*Frame) : 0.264
Stream size : 1.24 GiB (90%)
Writing library : XviD 73
Audio #1
ID : 1
Format : AC-3
Format/Info : Audio Coding 3
Mode extension : CM (complete main)
Format settings, Endianness : Big
Codec ID : 2000
Duration : 1h 33mn
Bit rate mode : Constant
Bit rate : 192 Kbps
Channel(s) : 2 channels
Channel positions : Front: L R
Sampling rate : 48.0 KHz
Bit depth : 16 bits
Compression mode : Lossy
Stream size : 128 MiB (9%)
Alignment : Split accross interleaves
Interleave, duration : 40 ms (1.00 video frame)
Interleave, preload duration : 500 ms

Скриншот c названием фильма

Скриншоты

[cybertorrent.ru].t177.torrent 
Торрент: Зарегистрирован [ 2018-02-15 13:57 ] · C9C7CF437AF0DB4E5CCCDF5A5E093E225601E303

Скачать .torrent

Скачать

14 KB

Статус: проверено
Скачан: 0 раз
Размер: 1,37 GB
Профиль [ЛС]
Показать сообщения:    

Текущее время: 21-Май 18:57

Часовой пояс: UTC ± 0



Вы не можете начинать темы
Вы не можете отвечать на сообщения
Вы не можете редактировать свои сообщения
Вы не можете удалять свои сообщения
Вы не можете голосовать в опросах
Вы не можете прикреплять файлы к сообщениям
Вы можете скачивать файлы