Статистика раздачи
Размер:  3,03 GB   |    Зарегистрирован:  5 месяцев 5 дней   |    Скачан:  0 раз

Полного источника не было: Никогда

Личеров:  1  [  0 KB/s  ]  
 
   
 
 

lom ®

Пол:
Не указан
Стаж:
5 месяцев 6 дней
Сообщений:
156

Наруто Фильм 2: Великое противостояние! Призрачные руины земных недр Naruto the Movie 2: Legend of the Stone of Gelel
-Год выпуска: 2005
Страна: Япония
Жанр: приключения, боевые искусства
Продолжительность: 97 мин.
Тип: Movie
Перевод: Субититры
Субтитры: русские
Тайминг и перевод: [dimon] | Редакция: Shadoy-Режиссёр: Кавасаки Хироцугу-Описание: Главное - идея осталась той же, что и на протяжении всей первой половины сериала: нам в очередной раз показали вариацию на тему маленьких талантливых сирот, попавших под дурное влияние и в итоге спасённых выстраданными Наруто жизненными принципами. Одиночество и величайшая важность близких, дорогих людей, сила, дарованная, дабы защитить их - красная нить, пронизывающая весь сериал, опоясала второй мувик и вписала его тем самым в общую картину.
А вообще речь идёт о неизвестных завоевателях из-за моря, вторгнувшихся в Страну Ветра в поисках таинственного Камня Гелеля. А Наруто и компании как всегда очень подфартило оказаться в самом эпицентре событий, причём без поддержки со стороны деревни.-Качество: HDTVRip 720p [SOFCJ-Raws]
Скачать: Cэмпл
Формат видео: MKV
Видео кодек: H.264
Аудио кодек: AC3
Видео: MPEG4 Video (H264) 1280x688 23.976fps 8bit 4300 Кбит/сек
Аудио: Dolby AC3 48000Hz stereo 2ch 192 Кбит/сек
Субтитры: Русские .ass (отдельным файлом)

Скриншоты

MediaInfo

Формат : Matroska
Версия формата : Version 4 / Version 2
Размер файла : 3,03 Гбайт
Продолжительность : 1 ч. 36 м.
Общий поток : 4496 Кбит/сек
Дата кодирования : UTC 2010-02-22 21:41:31
Программа кодирования : mkvmerge v5.9.0 ('On The Loose') built on Dec 9 2012 15:37:01
Библиотека кодирования : libebml v1.3.0 + libmatroska v1.4.0
Видео
Идентификатор : 1
Формат : AVC
Формат/Информация : Advanced Video Codec
Профиль формата : High@L4.0
Параметр CABAC формата : Да
Параметр ReFrames формата : 6 кадров
Идентификатор кодека : V_MPEG4/ISO/AVC
Продолжительность : 1 ч. 36 м.
Битрейт : 4300 Кбит/сек
Ширина : 1280 пикселей
Высота : 688 пикселей
Соотношение сторон : 1,85:1
Режим частоты кадров : Постоянный
Частота кадров : 23,976 кадра/сек
Цветовое пространство : YUV
Субдискретизация насыщенности : 4:2:0
Битовая глубина : 8 бит
Тип развёртки : Прогрессивная
Бит/(Пиксели*Кадры) : 0.204
Размер потока : 2,84 Гбайт (94%)
Библиотека кодирования : x264 core 140 r2377+40 929f149 tMod [8-bit@all X86_64]
Default : Да
Forced : Нет
Основные цвета : BT.709
Характеристики трансфера : BT.709
Коэффициенты матрицы : BT.709
Аудио
Идентификатор : 2
Формат : AC-3
Формат/Информация : Audio Coding 3
Расширение режима : CM (complete main)
Параметр Endianness формата : Big
Идентификатор кодека : A_AC3
Продолжительность : 1 ч. 36 м.
Вид битрейта : Постоянный
Битрейт : 192 Кбит/сек
Каналы : 2 канала
Расположение каналов : Front: L R
Частота : 48,0 КГц
Битовая глубина : 16 бит
Метод сжатия : С потерями
Задержка видео : 14 мс.
Размер потока : 132 Мбайт (4%)
Default : Да
Forced : Нет

Раздачи SOFCJ по вселенной "Наруто"

  • Наруто: Ураганные хроники · HDTVRip 720p · HDTVRip HWP
  • Фильмы ::
  • Защитить принцессу страны Снега · HDTVRip 720p · BDRip 720p · BDRip 1080p - после 100 эп.
  • Призрачные руины в недрах земли · HDTVRip 720p · BDRip 720p · BDRip 1080p - после 141 эп.
  • Бунт зверей на острове Месяца · HDTVRip 720p · BDRip 720p · BDRip 1080p - после 147 эп.
  • фильм первый · BDRip 1080p · BDRemux 1080i - после 32 эп.
  • Узы · BDRip 1080p · BDRemux 1080p - после 71 эп.
  • Наследники Воли Огня · BDRemux 1080p - после 120 эп.
  • Затерянная башня · DVDRip · HDTVRip 720p · BDRip 720p · BDRip 1080p · BDRemux 1080p - после 171 эп.
  • Кровавая тюрьма · DVDRip · HDTVRip 720p · BDRip 720p · BDRip 1080p · BDRemux 1080i - после 222 эп.
  • Путь ниндзя · BDRip 720p · BDRip 1080p · BDRemux 1080p - после 271 эп. | Пролог 311 эп.
  • 2 0 1 4 · релиз на DVD и Blu-ray в 2015 г.
  • ОВА ::
  • Поиски четырёхлистного алого клевера - после 19 эп.
  • Отчаянная схватка в деревне Скрытого Водопада: я герой! · DVDRip - после 53 эп.
  • Большой спортивный фестиваль Конохи · HDTVRip 720p · BDRip 720p · BDRip 1080p - доп. к 1-ому фильму
  • Наконец-то схватка! Джонины против генинов!! Большой бойцовский турнир!! · DVDRip - после 100 эп.
  • Пересечение дорог - после 19 эп., но лучше см. после 36 эп., а вот по окончанию титров - после половины 142 эп.
  • Джин и три желания!! · BDRip 720p · BDRip 1080p · BDRemux 1080p - доп. к 7-ому фильму / после 100 эп.
  • Наруто x UT - музыкально видео · DVDRip · DVD5 - после 253 эп.
  • Пылающий экзамен на чунина! Наруто против Конохамару!! · BDRip 720p · BDRemux 1080i - доп. к 8-ому фильму
  • Серия анимационных роликов из игры "Ultimate Ninja Storm Generations"
  • Братья Учиха, Мангекьё Шаринган, курочки и глазунья!
  • Серия анимационных роликов из игры "Ultimate Ninja Storm Revolution"Прим.: ТВ-1| ТВ-2

Раздачи SOFCJ по вселенной "Ван-Пис"

  • Ван-Пис
  • Фильмы ::
  • The Great Gold Pirate - после 18 эп.
  • Clockwork Island Adventure - после 45 эп.
  • Chopper’s Kingdom on the Island of Strange Animals - после 95 эп.
  • Dead End Adventure · BDRemux 1080p - после 146 эп.
  • The Cursed Holy Sword · BDRemux 1080p - после 183 эп.
  • Baron Omatsuri and the Secret Island · BDRip 720p · BDRemux 1080p - после 224 эп.
  • Giant Mecha Soldier of Karakuri Castle · BDRip 720p · BDRemux 1080p - после 268 эп.
  • The Desert Princess and the Pirates: Adventures in Alabasta · BDRip 1080p · BDRemux 1080p - компиляция 93-130 эп.
  • Episode of Chopper Plus: Bloom in the Winter, Miracle Cherry Blossom · BDRip 720p · BDRip 1080p · BDRemux 1080p - компиляция 78-92 эп.
  • Strong World · BDRemux 1080p - после 429 эп.
  • Film Z · BDRemux 1080p - после 578 эп.
  • Спешлы ::
  • Episode of Nami · BDRip 1080p - компиляция 31-45 эп.
  • Episode of Luffy: Hand Island Adventure · HDTVRip 720p · BDRip 720p · BDRip 1080p · BDRemux 1080i - после 578 эп.
[cybertorrent.ru].t1771.torrent 
Торрент: Зарегистрирован [ 2018-02-16 08:44 ] · DC6D1E2682504AFF9CA120657A2E5974CC115E63

Скачать .torrent

Скачать

16 KB

Статус: проверено
Скачан: 0 раз
Размер: 3,03 GB
Профиль [ЛС]
Показать сообщения:    

Текущее время: 21-Июл 23:21

Часовой пояс: UTC ± 0



Вы не можете начинать темы
Вы не можете отвечать на сообщения
Вы не можете редактировать свои сообщения
Вы не можете удалять свои сообщения
Вы не можете голосовать в опросах
Вы не можете прикреплять файлы к сообщениям
Вы можете скачивать файлы