Статистика раздачи
Размер:  26,78 GB   |    Зарегистрирован:  5 месяцев 5 дней   |    Скачан:  0 раз

Полного источника не было: Никогда

Личеров:  1  [  0 KB/s  ]  
 
   
 
 

DR_KTO ®

Пол:
Не указан
Стаж:
5 месяцев 6 дней
Сообщений:
105

Давайте рисовать! (вып. 101-112, 114-200)
Год выпуска: 2009-2013
Страна: Россия
Жанр: Детская телепередача
Продолжительность: 99 ~ 20 минут
Перевод: Не требуется
Русские субтитры: нет
Описание: Добрая фея Фиалка и ее помощник Каляка-Маляка научат рисовать всех-всех-всех, главное — желание!
Присоединяйтесь!
Доп. информация: Запись с канала "Карусель". Нумерация выпусков - с него же. В раздаче выпуски с номерами с 101 по 200 ( за исключением выпуска №113)
Сэмпл: http://multi-up.com/940261
Релиз:
Ссылка на предыдущие и альтернативные раздачи: http://cybertorrent.ru/tracker.php?nm=%D0%94%D0%B0%D0%B2%D0%B0%D0%B9%D1%82%D0...0%B0%D1%82%D1%8C
качество: SATRip
формат: AVI
Видео: 720x576 (4:3), 25 fps, XviD build 64 ~1800 kbps avg, 0.17 bit/pixel
Аудио: 48 kHz, MPEG Layer 3, 2 ch, ~128.00 kbps avg

Список выпусков/серий

101. Паровозик.avi
102. Ласточки-нотки.avi
103. Лейка для феи Фиалки.avi
104. Портрет и автопортрет.avi
105. Облака-загадки.avi
106. Овальная страна.avi
107. Огородное пугало.avi
108. Кузнечики.avi
109. Тигры и леопарды.avi
110. Грибное царство.avi
111. Чайный двор.avi
112. Фруктовые человечки.avi
114. Разноцветная палитра-бабочки.avi
115. Корона для бала.avi
116. Подводное царство.avi
117. Корабль пустыни-верблюд.avi
118. Портрет панды.avi
119. Арбузная долька.avi
120. Страна букваря.avi
121. Месяц в облаках.avi
122. Барабан.avi
123. Карнавальная маска.avi
124. Вальс цветов.avi
125. Чудо-дерево.avi
126. Друг для цыплёнка.avi
127. Прыгающий мячик.avi
128. Сороконожка в сапожках.avi
129. Варежка.avi
130. Крокодил из пуговиц.avi
131. Снеговик.avi
132. Новогодняя рыбка.avi
133. Пингвин на коньках.avi
134. Мешок Деда Мороза.avi
135. Ладушки-ладошки.avi
136. Сахарный кренделёк.avi
137. Ключ от сказки.avi
138. Быстроногий страус.avi
139. Замок-замoк.avi
140. Карета из тыквы.avi
141. Скоморохи.avi
142. Парад гусаров.avi
143. Часы с кукушкой.avi
144. Чайная стрекоза.avi
145. Волшебная палочка.avi
146. Ваза для цветов.avi
147. Волшебный карандаш.avi
148. Помощница-метёлка.avi
149. Летучая мышь.avi
150. Самолёт.avi
151. Поросёнок.avi
152. Снежная птица.avi
153. Бабочки-музыканты.avi
154. Енот-полоскун.avi
155. Цыплёнок из скорлупы.avi
156. Неваляшка.avi
157. Сапоги в луже.avi
158. Скворечник.avi
159. Букет тюльпанов.avi
160. Цветик-семицветик.avi
161. Волшебная мельница.avi
162. Шляпа для индейца.avi
163. Песчаный замок.avi
164. Почтовый голубь.avi
165. Карта сокровищ.avi
166. Кукушка.avi
167. Страна знаний.avi
168. Трактор в поле.avi
169. Весёлый улей.avi
170. Медвежонок.avi
171. Пароход.avi
172. Солнечная картина.avi
173. Морская чайка.avi
174. Мухомор.avi
175. Барашек.avi
176. Клубничная полянка.avi
177. Кошки-мышки.avi
178. Волшебное дерево.avi
179. Радуга-мост.avi
180. Самовар.avi
181. Колокольчики-цветы.avi
182. Мамонтёнок.avi
183. Улитка на пеньке.avi
184. Лягушка-квакушка.avi
185. Динозаврик.avi
186. Жираф.avi
187. Заяц-садовод.avi
188. Кометы и планеты.avi
189. Парусник.avi
190. Осьминог в море.avi
191. Пеликан.avi
192. Торт для Каляки-Маляки.avi
193. Божья коровка.avi
194. Морской краб.avi
195. Лев на острове.avi
196. Колобок.avi
197. Репка.avi
198. Золотая рыбка.avi
199. Черепашка.avi
200. Пластилиновый ёжик.avi
ВНИМАНИЕ! 22.02.2015 торрент перезалит, т.к. были добавлены следующие выпуски:
107. Огородное пугало.avi
108. Кузнечики.avi
109. Тигры и леопарды.avi
116. Подводное царство.avi
123. Карнавальная маска.avi
192. Торт для Каляки-Маляки.avi
198. Золотая рыбка.avi

MediaInfo

Полное имя : F:\Давайте рисовать вып.101-200\Давайте рисовать 101-200\101. Паровозик.avi
Формат : AVI
Формат/Информация : Audio Video Interleave
Размер файла : 266 Мбайт
Продолжительность : 19 м.
Общий поток : 1940 Кбит/сек
Программа кодирования : Lavf54.63.100
Видео
Идентификатор : 0
Формат : MPEG-4 Visual
Профиль формата : Simple@L3
Параметр BVOP формата : Нет
Параметр QPel формата : Нет
Параметр GMC формата : Без точки перехода
Параметр матрицы формата : Default (H.263)
Идентификатор кодека : XVID
Идентификатор кодека/Подсказка : XviD
Продолжительность : 19 м.
Битрейт : 1799 Кбит/сек
Ширина : 720 пикселей
Высота : 576 пикселей
Соотношение сторон : 4:3
Частота кадров : 25,000 кадров/сек
Стандарт вещания : PAL
Цветовое пространство : YUV
Субдискретизация насыщенности : 4:2:0
Битовая глубина : 8 бит
Тип развёртки : Прогрессивная
Метод сжатия : С потерями
Бит/(Пиксели*Кадры) : 0.173
Размер потока : 247 Мбайт (93%)
Библиотека кодирования : XviD 64
Аудио
Идентификатор : 1
Формат : MPEG Audio
Версия формата : Version 1
Профиль формата : Layer 3
Идентификатор кодека : 55
Идентификатор кодека/Подсказка : MP3
Продолжительность : 19 м.
Вид битрейта : Постоянный
Битрейт : 128 Кбит/сек
Каналы : 2 канала
Частота : 48,0 КГц
Метод сжатия : С потерями
Размер потока : 17,6 Мбайт (7%)
Выравнивание : Соединение по промежуткам
Продолжительность промежутка : 24 мс. (0,60 видеокадр)
Время предзагрузки промежутка : 24 мс.

Скриншоты

[cybertorrent.ru].t1775.torrent 
Торрент: Зарегистрирован [ 2018-02-16 08:44 ] · D731975026F160D886748BDE082871366D2F9F93

Скачать .torrent

Скачать

75 KB

Статус: проверено
Скачан: 0 раз
Размер: 26,78 GB
Профиль [ЛС]
Показать сообщения:    

Текущее время: 21-Июл 11:06

Часовой пояс: UTC ± 0



Вы не можете начинать темы
Вы не можете отвечать на сообщения
Вы не можете редактировать свои сообщения
Вы не можете удалять свои сообщения
Вы не можете голосовать в опросах
Вы не можете прикреплять файлы к сообщениям
Вы можете скачивать файлы