Статистика раздачи
Размер:  1,07 GB   |    Зарегистрирован:  6 месяцев 13 дней   |    Скачан:  0 раз

Полного источника не было: Никогда

   
 

Гость ®

Пол:
Не указан

Сумеречная зонаThe Twilight Zone- Год выпуска: 2019
Страна: США
Жанр: Фантастика, ужасы, фэнтези, мистика
Продолжительность: ~00:55:00
Перевод: Профессиональный (многоголосый закадровый) Студия «Profix Media»-Режиссёр: Герард МакМюррей, Грег Яйтанс
В ролях: Джордан Пил, Роб Карпентер, Джон Чо, Грэм Даффи, Лэйн Эдвардс, Гленн Флешлер, Демсон Идрис, Грег Киннир, Санаа Лэтэн, Николас Ли, Адам Скотт, Стивен Ян, Зази Битц, Бетти Гэбриел-Описание: Приготовитесь, вас ждет удивительное путешествие в другое измерение, где живут ужасные существа и не действуют законы физики. Канал CBS в 2019 году представляет перезапуск «Сумеречной зоны», фантастического сериала представляющего из себя антологию из десяти историй.
Каждый эпизод, это невероятная смесь различных киножаноров, таких как: ужасы и фэнтези, фантастика и мистика. Зрителей ждут увлекательные сюжеты, необычные персонажи и развязка которую просто невозможно предугадать.
Если вы обожаете все связанное с паранормальными явлениями и научную фантастику, то этот проект наверняка вам понравится. Оригинальное шоу вышло в конце шестидесятых годов, став культовым телевизионным продуктом с многомиллионной армией поклонников.-Доп. информация: Без рекламных ВидеоАудио вставок-Всем нетерпеливым, канал на отдачу маленький.
Ныть где сид, поддайте скорости не нужно. Не нравится - идите мимо, найдите Альтернативные раздачи, без негативных комментариев здесь.
-Альтернативные раздачи
Сэмпл-Качество: WEBRip
Формат: AVI
Видео: XviD, 720x400 (16:9), 24,000 fps, ~1500 kbps
Аудио Rus.: MP3, 48 kHz, 2 ch, 128 kbps
Аудио Eng.: MP3, 48 kHz, 2 ch, 128 kbps
Субтитры: отсутствуют
Реклама: отсутствует

MediaInfo

Код:Полное имя The.Twilight.Zone.2019.S01E02.WEBRip.RusEng.Profix.Media.JuS.avi
Формат : AVI
Формат/Информация : Audio Video Interleave
Размер файла : 460 Мбайт
Продолжительность : 36 м. 14 с.
Общий поток : 1775 Кбит/сек
Программа кодирования : VirtualDubMod 1.5.10.3 (build 2550/release)
Библиотека кодирования : VirtualDubMod build 2550/release
Видео
Идентификатор : 0
Формат : MPEG-4 Visual
Профиль формата : Advanced Simple@L5
Настройки формата : BVOP1
Параметр BVOP формата : 1
Параметр QPel формата : Нет
Параметр GMC формата : Без точки перехода
Параметр матрицы формата : Default (H.263)
Идентификатор кодека : XVID
Идентификатор кодека/Подсказка : XviD
Продолжительность : 36 м. 14 с.
Битрейт : 1505 Кбит/сек
Ширина : 720 пикселей
Высота : 400 пикселей
Соотношение сторон : 16:9
Частота кадров : 24,000 кадра/сек
Цветовое пространство : YUV
Субдискретизация насыщенности : 4:2:0
Битовая глубина : 8 бит
Тип развёртки : Прогрессивная
Метод сжатия : С потерями
Бит/(Пиксели*Кадры) : 0.218
Размер потока : 390 Мбайт (85%)
Библиотека кодирования : XviD 1.2.1 (UTC 2008-12-04)
Аудио #1
Идентификатор : 1
Формат : MPEG Audio
Версия формата : Version 1
Профиль формата : Layer 3
Настройки формата : Joint stereo / MS Stereo
Режим : Joint stereo
Расширение режима : MS Stereo
Идентификатор кодека : 55
Идентификатор кодека/Подсказка : MP3
Продолжительность : 36 м. 14 с.
Вид битрейта : Постоянный
Битрейт : 128 Кбит/сек
Каналы : 2 канала
Частота : 48,0 КГц
Метод сжатия : С потерями
Размер потока : 33,2 Мбайт (7%)
Выравнивание : Соединение по промежуткам
Продолжительность промежутка : 42 мс. (1,00 видеокадр)
Время предзагрузки промежутка : 504 мс.
Аудио #2
Идентификатор : 2
Формат : MPEG Audio
Версия формата : Version 1
Профиль формата : Layer 3
Настройки формата : Joint stereo / MS Stereo
Режим : Joint stereo
Расширение режима : MS Stereo
Идентификатор кодека : 55
Идентификатор кодека/Подсказка : MP3
Продолжительность : 36 м. 14 с.
Вид битрейта : Постоянный
Битрейт : 128 Кбит/сек
Каналы : 2 канала
Частота : 48,0 КГц
Метод сжатия : С потерями
Размер потока : 33,2 Мбайт (7%)
Выравнивание : Соединение по промежуткам
Продолжительность промежутка : 42 мс. (1,00 видеокадр)
Время предзагрузки промежутка : 504 мс.

Скриншоты

Внимание! Раздача ведётся путём добавления новых серий

Внимание! Раздача ведётся путём добавления новых серий; при каждом добавлении создаётся новый торрент. Чтобы начать докачку новой серии, пользователям необходимо сделать следующее:
(1) остановить скачивание,
(2) удалить старый торрент у себя из клиента (старые серии удалять не надо),
(3) скачать новый торрент и запустить его у себя в клиенте вместо старого, при этом указать клиенту путь в старую папку куда и должно происходить скачивание новых серий.
Ваш клиент при этом должен произвести хеширование (проверку) старой папки (если не производит сам - помогите ему сделать это), и будет докачивать только те серии которых у вас ещё нет. Старые серии при этом не удаляются, а продолжают раздаваться!
Eсли вы уже удалили старые серии, то предотвратить повторную закачку старых серий можно, отжав галочку в соответствующих местах при запуске нового торрента. По возможности, желательно не удалять старые серии как можно дольше чтобы релизёр не столько продолжал раздавать старые серии, а смог сконцентрироваться на новых.
[cybertorrent.ru].t1777.torrent 
Торрент: Зарегистрирован [ 2019-04-05 15:58 ] · 35D7A93DFC968B348AF522CC1D2D6FEE8CE9A184

Скачать .torrent

Скачать

11 KB

Статус: проверено
Скачан: 0 раз
Размер: 1,07 GB
terms.php
Показать сообщения:    

Текущее время: 19-Окт 04:30

Часовой пояс: UTC ± 0



Вы не можете начинать темы
Вы не можете отвечать на сообщения
Вы не можете редактировать свои сообщения
Вы не можете удалять свои сообщения
Вы не можете голосовать в опросах
Вы не можете прикреплять файлы к сообщениям
Вы можете скачивать файлы