BitTorrent клиенты



Колдовство-2: Соблазнительница / Witchcraft II: The Temptress (Марк Вудс / Mark Woods) [1989, США, ужасы, DVDRip] VO (buster 66)

Ответить на тему
Статистика раздачи
Размер:  1,17 GB   |    Зарегистрирован:  11 месяцев 25 дней   |    Скачан:  0 раз

Полного источника не было: Никогда

 
   
 
 
Автор Сообщение

GEEP ®

Пол: Не указан

Стаж: 1 год

Сообщений: 866

Создавать темы 24-Фев-2018 19:13

[Цитировать]

Колдовство-2: Соблазнительница / Witchcraft II: The Temptress
Страна: США
Жанр: ужасы
Год выпуска: 1989
Продолжительность: 01:27:52
Перевод: Одноголосый закадровый buster_66
Субтитры: нет
Режиссер: Марк Вудс / Mark Woods
В ролях: Чарльз Соломон, Делия Шеппард, Дэвид Хомб, Миа Руис, Джей Ричардсон
Описание: Повзрослевший Уилл воспитывался в семье Адамсов, которых считал за своих настоящих родителей, жил жизнью обычного тинейджера-студента и даже не подозревал о своём великом предназначении и колдовских способностях. Поэтому в поселившейся по соседству сексапильной красотке Долорес Уилл не сразу признал ведьму, которая только и ждала удобного случая, чтобы соблазнить его и переманить на сторону зла.
Доп. информация: Благодарю Яна Нечволода и Фреда Ричи за помощь!
Сэмпл: http://multi-up.com/1187942
Качество видео: DVDRip - такой был найден в сети, кино редкое, поэтому альтернативу пока не встречал
Формат видео: AVI
Видео: MPEG-4 Visual (XviD), 720x544, 4:3, 25fps, 1771 kbp/s
Аудио: MP3, 48kHz, 128 kbp/s, 2ch

MediaInfo

General
Complete name : C:\Загруженные фильмы\Witchcraft II.avi
Format : AVI
Format/Info : Audio Video Interleave
File size : 1.17 GiB
Duration : 1 h 27 min
Overall bit rate : 1 908 kb/s
Writing application : VirtualDubMod 1.5.4.1 (build 2178/release)
Writing library : VirtualDub build 35491/release
Video
ID : 0
Format : MPEG-4 Visual
Format profile : Advanced Simple@L5
Format settings : BVOP1 / Custom Matrix
Format settings, BVOP : 1
Format settings, QPel : No
Format settings, GMC : No warppoints
Format settings, Matrix : Custom
Codec ID : XVID
Codec ID/Hint : XviD
Duration : 1 h 27 min
Bit rate : 1 771 kb/s
Width : 720 pixels
Height : 544 pixels
Display aspect ratio : 4:3
Frame rate : 25.000 FPS
Color space : YUV
Chroma subsampling : 4:2:0
Bit depth : 8 bits
Scan type : Progressive
Compression mode : Lossy
Bits/(Pixel*Frame) : 0.181
Stream size : 1.09 GiB (93%)
Writing library : XviD 64
Audio
ID : 1
Format : MPEG Audio
Format version : Version 1
Format profile : Layer 3
Codec ID : 55
Codec ID/Hint : MP3
Duration : 1 h 27 min
Bit rate mode : Constant
Bit rate : 128 kb/s
Channel(s) : 2 channels
Sampling rate : 48.0 kHz
Compression mode : Lossy
Stream size : 80.5 MiB (7%)
Alignment : Split accross interleaves
Interleave, duration : 40 ms (1.00 video frame)
Interleave, preload duration : 500 ms

Скриншот c названием фильма

Скриншоты

[cybertorrent.ru].t17995.torrent 
Торрент: Зарегистрирован [ 2018-02-24 19:20 ] · AE9A95DD57EBE2CCE519146D3FA4DD4ED6AA81A1

Скачать .torrent

Скачать

12 KB

Статус: проверено
Скачан: 0 раз
Размер: 1,17 GB
terms.php
[Профиль] [ЛС]
Показать сообщения:    
Ответить на тему

Текущее время: 22-Фев 03:03

Часовой пояс: UTC + 3



Вы не можете начинать темы
Вы не можете отвечать на сообщения
Вы не можете редактировать свои сообщения
Вы не можете удалять свои сообщения
Вы не можете голосовать в опросах
Вы не можете прикреплять файлы к сообщениям
Вы можете скачивать файлы