Статистика раздачи
Размер:  1,36 GB   |    Зарегистрирован:  3 месяца 6 дней   |    Скачан:  0 раз

Полного источника не было: Никогда

 
   
 
 

lopster ®

Пол:
Не указан
Стаж:
3 месяца 6 дней
Сообщений:
612

Русские деньги
Год выпуска: 2006
Жанр: Комедия, Исторический
Продолжительность: 1:54:56
Режиссер: Игорь Масленников
В ролях: Алла Демидова, Юрий Гальцев, Алексей Гуськов, Лидия Вележева, Зоя Буряк, Леонид Мозговой, Нина Ургант, Оскар Кучера, Вадим Сквирский, Лев Елисеев и др.
Описание: По пьесе А.Н. Островского "Волки и овцы".
Хозяйка большого, но расстроенного поместья Меропия Мурзавецкая держит всю свою вотчину в железном кулаке: не спускает лести, подхалимства и слывет на всю округу святой строгой благодетельницей. Но и у нее есть своя слабость — племянник Апполоша, пропойца и неудавшийся хохмач, выгнанный с военной службы за мелкие пакости. Чтобы поправить своё положение и наконец-то пристроить племянника, Меропия решает женить его на богатой соседке, хорошенькой вдовушке Евлампии Купавиной, и ради этого идет на череду подлогов и лжи. Несмотря на то, что Апполон вместо решительного предложения руки и сердца лишь занимает у Купавиной пять рублей на «табачок-с», задумка Мурзавецкой близка к завершению, и наивная овечка Евлампия со всем своим капиталом и необъятными лесами почти оказывается в пасти деспотичной помещицы. Но когда Мурзавецкая уже не сомневается в успехе своей аферы, появляется Василий Беркутов, давний ухажёр Купавиной, прирожденный предприниматель и делец… и тогда становится понятно, что хотя среди нас и живут волки в овечьей шкуре, порой и матерый хищник может попасть впросак и не выдержать напора более сильного зверя.
Все раздачи фильма: Русские деньги
Качество: DVDRip
Формат: AVI
Видео кодек: XviD
Аудио кодек: AC3
Видео: 640x384, 1314 kb/s
Аудио: АС3, 6 ch, 384 kb/s

MI

Код:Общее
Полное имя : C:\otkat\Видео\Русские деньги\RD.avi
Формат : AVI
Формат/Информация : Audio Video Interleave
Размер файла : 1,36 Гбайт
Продолжительность : 1 ч. 54 м.
Общий поток : 1698 Кбит/сек
Программа кодирования : VirtualDubMod 1.5.10.1 (build 2439/release)
Библиотека кодирования : VirtualDubMod build 2439/release
Видео
Идентификатор : 0
Формат : MPEG-4 Visual
Профиль формата : Advanced Simple@L5
Параметр BVOP формата : 2
Параметр QPel формата : Нет
Параметр GMC формата : Без точки перехода
Параметр матрицы формата : Default (H.263)
Режим смешивания : Сжатый битовый поток
Идентификатор кодека : XVID
Идентификатор кодека/Подсказка : XviD
Продолжительность : 1 ч. 54 м.
Битрейт : 1304 Кбит/сек
Ширина : 640 пикселей
Высота : 384 пикселя
Соотношение сторон : 5:3
Частота кадров : 25,000 кадров/сек
Цветовое пространство : YUV
Субдискретизация насыщенности : 4:2:0
Битовая глубина : 8 бит
Тип развёртки : Прогрессивная
Метод сжатия : С потерями
Бит/(Пиксели*Кадры) : 0.212
Размер потока : 1,05 Гбайт (77%)
Библиотека кодирования : XviD 1.0.3 (UTC 2004-12-20)
Аудио
Идентификатор : 1
Формат : AC-3
Формат/Информация : Audio Coding 3
Расширение режима : CM (complete main)
Параметр Endianness формата : Big
Идентификатор кодека : 2000
Продолжительность : 1 ч. 54 м.
Вид битрейта : Постоянный
Битрейт : 384 Кбит/сек
Каналы : 6 каналов
Расположение каналов : Front: L C R, Side: L R, LFE
Частота : 48,0 КГц
Частота кадров : 31,250 кадров/сек (1536 spf)
Метод сжатия : С потерями
Размер потока : 316 Мбайт (23%)
Выравнивание : Разделение по промежуткам
Продолжительность промежутка : 40 мс. (1,00 видеокадр)
Время предзагрузки промежутка : 500 мс.

Скриншоты


[cybertorrent.ru].t18.torrent 
Торрент: Зарегистрирован [ 2018-02-15 13:57 ] · 645D70158B219BBD7BCDBEDE6350E41F78CBB47B

Скачать .torrent

Скачать

14 KB

Статус: проверено
Скачан: 0 раз
Размер: 1,36 GB
Профиль [ЛС]
Показать сообщения:    

Текущее время: 21-Май 19:02

Часовой пояс: UTC ± 0



Вы не можете начинать темы
Вы не можете отвечать на сообщения
Вы не можете редактировать свои сообщения
Вы не можете удалять свои сообщения
Вы не можете голосовать в опросах
Вы не можете прикреплять файлы к сообщениям
Вы можете скачивать файлы