Статистика раздачи
Размер:  8,82 GB   |    Зарегистрирован:  5 месяцев 5 дней   |    Скачан:  0 раз

Полного источника не было: Никогда

 
   
 
 

AleXa ®

Пол:
Не указан
Стаж:
5 месяцев 6 дней
Сообщений:
51

Футурама / Futurama
Сезон 7А / Volume 7
720р
Страна: США
Жанр: Фантастика, комедия
Продолжительность: 00:21:38
Год выпуска: 2012
Перевод:
Двухголосый закадровый: 2х2, Кубик в Кубе
Многоголосый закадровый: LostFilm, VO-production
Русские субтитры: НФСФ
Автор идеи: Мэтт Грёйнинг / Matt Groening
Режиссёр: Фрэнк Марино, Дуэйн Кэри-Хилл, Стивен Сандовал, Кристалл Чесни-Томпсон...
Роли озвучивали: Билли Уэст, Кейти Сэгал, Джон ДиМаджио, Фил ЛаМарр, Лоурэн Том и др.
Описание: Сериал начинается с того, что разносчик пиццы из Нью-Йорка Филипп Джей Фрай случайно, как это кажется на первый взгляд, был заморожен в криогенной камере ровно в 00 часов 00 минут 00 секунд 1 января 2000 года. Он был разморожен тысячу лет спустя, 31 декабря 2999 года, и обнаружил себя в городе будущего Нью-Нью-Йорке. Пытаясь избежать принудительного назначения на работу курьером, кем он и был в прошлой жизни, Фрай познакомился со своими будущими коллегами - Турангой Лилой, роботом Бендером и пра-пра-пра-…-пра-внучатым племянником Хьюбертом Фарнсвортом — маразматичным 160-летним гениальным ученым-склеротиком, который берёт их на работу в свою небольшую компанию «Межпланетный экспресс», занимающуюся межгалактическими грузоперевозками. «Межпланетный экспресс» — это маленький бизнес профессора, окупающий его гениальные, но иногда весьма сомнительные исследования и изобретения.
Доп. информация: Видеоряд и английские субтитры из 720p.BluRay.x264-DEMAND.
Дорожка 2х2 растянута без сохранения тона.
Синхронизация и удаление рекламы дорожки VO-production выполнены без пережатия.
Спасибо!
Антифеминист - Синхронизация и нормализация дорожек Кубик в Кубе, LostFilm
#Antisnl# , Den.S-92 , Din Winchester - захват вещания 2х2
Студиям Кубик в Кубе, LostFilm, VO-production, телеканалу 2х2.

Список серий:

7ACV01 The Bots and the Bees
7ACV02 A Farewell to Arms
7ACV03 Decision 3012
7ACV04 The Thief of Baghead
7ACV05 Zapp Dingbat
7ACV06 The Butterjunk Effect
7ACV07 The Six Million Dollar Mon
7ACV08 Fun on a Bun
7ACV09 Free Will Hunting
7ACV10 Near-Death Wish
7ACV11 31st Century Fox
7ACV12 Viva Mars Vegas
7ACV13 Naturama
Семпл: Futurama7ACV01-13.720p.BDrip.4xRus
Качество: BDRip
Формат: MKV
Видео: MPEG4/AVC (x264), 1280x720, 23,976fps, 3269kbps
Аудио 1: Русский, AC3, 48kHz, 2.0ch, 192kbps 2х2
Аудио 2: Русский, AC3, 48kHz, 2.0ch, 192kbps Кубик в Кубе
Аудио 3: Русский, AC3, 48kHz, 2.0ch, 192kbps LostFilm
Аудио 4: Русский, AC3, 48kHz, 2.0ch, 256kbps VO-production
Аудио 5: Английский, AC3, 48kHz, 5.1ch, 384kbps Оригинал
Субтитры: Русские НФСФ, английские

Подробные технические данные

Общее
Уникальный идентификатор : 230649913542909903416935811472208875744 (0xAD858EB962BF166AAC6BE257CF9ED0E0)
Полное имя : F:\Futurama Volume 7.BDRip720p.4xRus.Eng\7ACV01-The Bots and the Bees.720p.BDRip.4xRus.Eng.mkv
Формат : Matroska
Версия формата : Version 2
Размер файла : 695 Мбайт
Продолжительность : 21 м.
Общий поток : 4489 Кбит/сек
Дата кодирования : UTC 2014-02-05 02:44:31
Программа кодирования : mkvmerge v5.4.0 ('Piper') built on Mar 10 2012 13:34:39
Библиотека кодирования : libebml v1.2.3 + libmatroska v1.3.0
Видео
Идентификатор : 1
Формат : AVC
Формат/Информация : Advanced Video Codec
Профиль формата : High@L4.1
Параметр CABAC формата : Да
Параметр ReFrames формата : 5 кадров
Идентификатор кодека : V_MPEG4/ISO/AVC
Продолжительность : 21 м.
Битрейт : 3269 Кбит/сек
Ширина : 1280 пикселей
Высота : 720 пикселей
Соотношение сторон : 16:9
Режим частоты кадров : Постоянный
Частота кадров : 23,976 кадра/сек
Цветовое пространство : YUV
Субдискретизация насыщенности : 4:2:0
Битовая глубина : 8 бит
Тип развёртки : Прогрессивная
Бит/(Пиксели*Кадры) : 0.148
Размер потока : 493 Мбайт (71%)
Заголовок : Futurama 7ACV01.BDRip.720p
Библиотека кодирования : x264 core 129 r2230 1cffe9f
Настройки программы : cabac=1 / ref=5 / deblock=1:0:0 / analyse=0x3:0x133 / me=umh / subme=7 / psy=1 / psy_rd=1.00:0.00 / mixed_ref=1 / me_range=16 / chroma_me=1 / trellis=1 / 8x8dct=1 / cqm=0 / deadzone=21,11 / fast_pskip=0 / chroma_qp_offset=-2 / threads=12 / lookahead_threads=2 / sliced_threads=0 / nr=0 / decimate=1 / interlaced=0 / bluray_compat=0 / constrained_intra=0 / bframes=3 / b_pyramid=2 / b_adapt=1 / b_bias=0 / direct=1 / weightb=1 / open_gop=0 / weightp=2 / keyint=250 / keyint_min=23 / scenecut=40 / intra_refresh=0 / rc_lookahead=40 / rc=2pass / mbtree=1 / bitrate=3269 / ratetol=1.0 / qcomp=0.60 / qpmin=0 / qpmax=69 / qpstep=4 / cplxblur=20.0 / qblur=0.5 / ip_ratio=1.40 / aq=1:1.00
Язык : English
Default : Да
Forced : Нет
Аудио #1
Идентификатор : 2
Формат : AC-3
Формат/Информация : Audio Coding 3
Расширение режима : CM (complete main)
Параметр Endianness формата : Big
Идентификатор кодека : A_AC3
Продолжительность : 21 м.
Вид битрейта : Постоянный
Битрейт : 192 Кбит/сек
Каналы : 2 канала
Расположение каналов : Front: L R
Частота : 48,0 КГц
Битовая глубина : 16 бит
Метод сжатия : С потерями
Размер потока : 29,7 Мбайт (4%)
Заголовок : DD 2.0 2x2
Язык : Russian
Default : Да
Forced : Нет
Аудио #2
Идентификатор : 3
Формат : AC-3
Формат/Информация : Audio Coding 3
Расширение режима : CM (complete main)
Параметр Endianness формата : Big
Идентификатор кодека : A_AC3
Продолжительность : 21 м.
Вид битрейта : Постоянный
Битрейт : 192 Кбит/сек
Каналы : 2 канала
Расположение каналов : Front: L R
Частота : 48,0 КГц
Битовая глубина : 16 бит
Метод сжатия : С потерями
Размер потока : 29,7 Мбайт (4%)
Заголовок : DD 2.0 Kubik v Kube
Язык : Russian
Default : Нет
Forced : Нет
Аудио #3
Идентификатор : 4
Формат : AC-3
Формат/Информация : Audio Coding 3
Расширение режима : CM (complete main)
Параметр Endianness формата : Big
Идентификатор кодека : A_AC3
Продолжительность : 21 м.
Вид битрейта : Постоянный
Битрейт : 192 Кбит/сек
Каналы : 2 канала
Расположение каналов : Front: L R
Частота : 48,0 КГц
Битовая глубина : 16 бит
Метод сжатия : С потерями
Размер потока : 29,7 Мбайт (4%)
Заголовок : DD 2.0 LostFilm
Язык : Russian
Default : Нет
Forced : Нет
Аудио #4
Идентификатор : 5
Формат : AC-3
Формат/Информация : Audio Coding 3
Расширение режима : CM (complete main)
Параметр Endianness формата : Big
Идентификатор кодека : A_AC3
Продолжительность : 21 м.
Вид битрейта : Постоянный
Битрейт : 256 Кбит/сек
Каналы : 2 канала
Расположение каналов : Front: L R
Частота : 48,0 КГц
Битовая глубина : 16 бит
Метод сжатия : С потерями
Задержка видео : 23 мс.
Размер потока : 39,6 Мбайт (6%)
Заголовок : DD 2.0 VO-production
Язык : Russian
Default : Нет
Forced : Нет
Аудио #5
Идентификатор : 6
Формат : AC-3
Формат/Информация : Audio Coding 3
Расширение режима : CM (complete main)
Параметр Endianness формата : Big
Идентификатор кодека : A_AC3
Продолжительность : 21 м.
Вид битрейта : Постоянный
Битрейт : 384 Кбит/сек
Каналы : 6 каналов
Расположение каналов : Front: L C R, Side: L R, LFE
Частота : 48,0 КГц
Битовая глубина : 16 бит
Метод сжатия : С потерями
Задержка видео : 5 мс.
Размер потока : 59,4 Мбайт (9%)
Заголовок : DD 5.1 Original
Язык : English
Default : Нет
Forced : Нет
Текст #1
Идентификатор : 7
Формат : UTF-8
Идентификатор кодека : S_TEXT/UTF8
Идентификатор кодека/Информация : UTF-8 Plain Text
Заголовок : ISFF
Язык : Russian
Default : Нет
Forced : Нет
Текст #2
Идентификатор : 8
Формат : UTF-8
Идентификатор кодека : S_TEXT/UTF8
Идентификатор кодека/Информация : UTF-8 Plain Text
Заголовок : English
Язык : English
Default : Нет
Forced : Нет

Скриншоты


Сезон 7Б 720р 4xRus
Сезон 7А 1080р 4xRus
Сезон 7Б 1080р 4xRus
Альтернативные раздачи
[cybertorrent.ru].t1800.torrent 
Торрент: Зарегистрирован [ 2018-02-16 08:44 ] · 8CBBA607260C7BB6D6FEFDB1DC28D87BF14150F4

Скачать .torrent

Скачать

46 KB

Статус: проверено
Скачан: 0 раз
Размер: 8,82 GB
Профиль [ЛС]
Показать сообщения:    

Текущее время: 21-Июл 23:04

Часовой пояс: UTC ± 0



Вы не можете начинать темы
Вы не можете отвечать на сообщения
Вы не можете редактировать свои сообщения
Вы не можете удалять свои сообщения
Вы не можете голосовать в опросах
Вы не можете прикреплять файлы к сообщениям
Вы можете скачивать файлы