Статистика раздачи
Размер:  1,45 GB   |    Зарегистрирован:  6 месяцев 12 дней   |    Скачан:  0 раз
Сидов:  8  [  0 KB/s  ]   Личеров:  2  [  0 KB/s  ]  
   
 

солнышко ®

Пол:
Не указан
Стаж:
7 месяцев 6 дней
Сообщений:
565

Чистокровные / Thoroughbreds
Страна: США
Жанр: триллер, драма
Год выпуска: 2017
Продолжительность: 01:32:04
Перевод: Профессиональный (полное дублирование) ViP Premiere
Субтитры: нет
Оригинальная аудиодорожка: английский
Режиссер: Кори Финли / Cory Finley
В ролях: Аня Тейлор-Джой, Оливия Кук, Антон Ельчин, Пол Спаркс, Кайли Вернофф, Фрэнси Свифт, Леа Просито, Макс Рипли, Шанти Спиллейн, Ксавье Диллингем
Описание: Дороги двух подруг из пригорода Коннектикута разошлись, и девушки не виделись несколько лет. Когда они снова встречаются, то решают восстановить свою былую дружбу. При более тесном общении девушки замечают, что они обе очень изменились, и даже стали способными на убийство.
Сэмпл: http://multi-up.com/1228491
Качество видео: BDRip (Thoroughbreds.2017.BDRemux.1080p.MediaClub.mkv)
Формат видео: AVI
Видео: MPEG4, XviD, 720x304 (2.35:1), 23.976 fps, 1 608 Kbps (0.306 bit/pixel)
Аудио: AC-3, 48.0 KHz, 2 ch, 192 Kbps, CBR - русский
Аудио 2: AC-3, 48.0 KHz, 6 ch, 448 Kbps, CBR - английский

MediaInfo

Общее
Полное имя : F:\Чистокровные.avi
Формат : AVI
Формат/Информация : Audio Video Interleave
Размер файла : 1,45 Гбайт
Продолжительность : 1 ч. 32 м.
Общий поток : 2262 Кбит/сек
Название фильма : Чистокровные / Thoroughbreds (2017)
Программа кодирования : VirtualDubMod 1.5.10.2 (build 2540/release)
Библиотека кодирования : VirtualDubMod build 2540/release
Авторское право : miha2154
Видео
Идентификатор : 0
Формат : MPEG-4 Visual
Профиль формата : Advanced Simple@L5
Настройки формата : BVOP1 / Custom Matrix
Параметр BVOP формата : 1
Параметр QPel формата : Нет
Параметр GMC формата : Без точки перехода
Параметр матрицы формата : Выборочная
Идентификатор кодека : XVID
Идентификатор кодека/Подсказка : XviD
Продолжительность : 1 ч. 32 м.
Битрейт : 1608 Кбит/сек
Ширина : 720 пикселей
Высота : 304 пикселя
Соотношение сторон : 2,35:1
Частота кадров : 23,976 (24000/1001) кадра/сек
Цветовое пространство : YUV
Субдискретизация насыщенности : 4:2:0
Битовая глубина : 8 бит
Тип развёртки : Прогрессивная
Метод сжатия : С потерями
Бит/(Пиксели*Кадры) : 0.306
Размер потока : 1,03 Гбайт (71%)
Библиотека кодирования : XviD 65
Аудио #1
Идентификатор : 1
Формат : AC-3
Формат/Информация : Audio Coding 3
Коммерческое название : Dolby Digital
Идентификатор кодека : 2000
Продолжительность : 1 ч. 32 м.
Вид битрейта : Постоянный
Битрейт : 192 Кбит/сек
Каналы : 2 канала
Channel layout : L R
Частота : 48,0 КГц
Частота кадров : 31,250 кадров/сек (1536 SPF)
Битовая глубина : 16 бит
Метод сжатия : С потерями
Размер потока : 126 Мбайт (8%)
Выравнивание : Разделение по промежуткам
Продолжительность промежутка : 42 мс. (1,00 видеокадр)
Время предзагрузки промежутка : 500 мс.
Заголовок : Профессиональный (многоголосый, закадровый) ViP Premiere
ServiceKind/String : Complete Main
Аудио #2
Идентификатор : 2
Формат : AC-3
Формат/Информация : Audio Coding 3
Коммерческое название : Dolby Digital
Идентификатор кодека : 2000
Продолжительность : 1 ч. 32 м.
Вид битрейта : Постоянный
Битрейт : 448 Кбит/сек
Каналы : 6 каналов
Channel layout : L R C LFE Ls Rs
Частота : 48,0 КГц
Частота кадров : 31,250 кадров/сек (1536 SPF)
Битовая глубина : 16 бит
Метод сжатия : С потерями
Размер потока : 295 Мбайт (20%)
Выравнивание : Разделение по промежуткам
Продолжительность промежутка : 42 мс. (1,00 видеокадр)
Время предзагрузки промежутка : 500 мс.
Заголовок : Английский
ServiceKind/String : Complete Main

Скриншот c названием фильма

Скриншоты


[cybertorrent.ru].t1800.torrent 
Торрент: Зарегистрирован [ 2019-04-06 16:23 ] · 420CCB57BAC58724A260654974621E4CA54F8519

Скачать .torrent

Скачать

15 KB

Статус: проверено
Скачан: 0 раз
Размер: 1,45 GB
terms.php
Профиль ЛС
Показать сообщения:    

Текущее время: 19-Окт 04:38

Часовой пояс: UTC ± 0



Вы не можете начинать темы
Вы не можете отвечать на сообщения
Вы не можете редактировать свои сообщения
Вы не можете удалять свои сообщения
Вы не можете голосовать в опросах
Вы не можете прикреплять файлы к сообщениям
Вы можете скачивать файлы