Статистика раздачи
Размер:  1,93 GB   |    Зарегистрирован:  6 месяцев 10 дней   |    Скачан:  0 раз

Полного источника не было: Никогда

   
 

Гость ®

Пол:
Не указан

Путь домой / A Dog's Way Home
Слоган: «Её ведёт не поводок, а любовь»
Страна: США
Жанр: мелодрама, семейный
Год выпуска: 2019
Продолжительность: 01:35:53
Перевод: Профессиональный (дублированный) iTunes
Оригинальная аудиодорожка: Английский
Субтитры: Русские (Форсированные, Полные), Английские (SDH)--Режиссер: Чарльз Мартин Смит / Charles Martin Smith--В ролях: Брайс Даллас Ховард, Эшли Джадд, Эдвард Джеймс Олмос, Александра Шипп, Джона Хауэр-Кинг, Кими Александр, Фэрра Авива, Кристофер Бауэр, Роландо Бойс, Джон Кассини, Бэрри Уотсон, Мотелл Джин Фостер, Уэс Стьюди...--Описание: Что делать, если тебя и твоего любимого хозяина разделяют сотни километров? Белла знает ответ: она обязательно вернется домой, чего бы ей это ни стоило. И путь ее будет полон невероятных приключений, опасностей и удивительных открытий.-- --Качество видео: BDRip-AVC A Dog's Way Home (2019) Blu-ray Remux -BLUEBIRD
Формат видео: MKV
Видео: AVC, 960x402p (2.40:1), 2050 kbps, 23.976 fps, 0.221 bit/pixel.
Аудио 1: AC3 Dolby Digital, 3/2 (L,C,R,l,r) + LFE ch, 48.0 KHz, 384 Kbps.
Аудио 2: AC3 Dolby Digital, 3/2 (L,C,R,l,r) + LFE ch, 48.0 KHz, 448 Kbps.
Формат субтитров: softsub (SRT)
[box]Сэмпл[/box]-

Скриншоты

MediaInfo/x264

x264

raw [info]: 960x402p 1:1 @ 24000/1001 fps (cfr)
x264 [info]: using SAR=1/1
x264 [info]: using cpu capabilities: MMX2 SSE2Fast SSSE3 SSE4.2 AVX
x264 [info]: profile High, level 4.1, 4:2:0, 8-bit
x264 [info]: frame I:1375 Avg QP:16.52 size: 68347
x264 [info]: frame P:30575 Avg QP:18.30 size: 23304
x264 [info]: frame B:106002 Avg QP:20.77 size: 6297
x264 [info]: consecutive B-frames: 2.6% 3.3% 7.5% 28.3% 15.8% 24.5% 4.4% 5.5% 1.4% 3.4% 0.7% 0.9% 0.4% 0.9% 0.1% 0.3%
x264 [info]: mb I I16..4: 5.9% 71.1% 23.0%
x264 [info]: mb P I16..4: 0.6% 10.7% 2.8% P16..4: 34.9% 23.4% 18.8% 1.4% 0.5% skip: 6.8%
x264 [info]: mb B I16..4: 0.1% 0.8% 0.5% B16..8: 36.6% 11.9% 3.7% direct: 5.4% skip:41.0% L0:40.2% L1:43.3% BI:16.5%
x264 [info]: 8x8 transform intra:72.1% inter:61.5%
x264 [info]: coded y,uvDC,uvAC intra: 86.3% 87.9% 68.8% inter: 25.0% 17.4% 5.0%
x264 [info]: i16 v,h,dc,p: 40% 18% 6% 37%
x264 [info]: i8 v,h,dc,ddl,ddr,vr,hd,vl,hu: 15% 12% 7% 8% 11% 11% 12% 10% 13%
x264 [info]: i4 v,h,dc,ddl,ddr,vr,hd,vl,hu: 38% 8% 4% 6% 10% 9% 9% 7% 9%
x264 [info]: i8c dc,h,v,p: 38% 25% 22% 15%
x264 [info]: Weighted P-Frames: Y:4.8% UV:3.2%
x264 [info]: ref P L0: 53.7% 14.8% 12.9% 5.1% 3.7% 2.7% 2.2% 1.3% 1.1% 0.9% 0.8% 0.8% 0.0% 0.0%
x264 [info]: ref B L0: 77.2% 10.1% 4.8% 2.3% 1.7% 1.3% 1.0% 0.6% 0.5% 0.3% 0.2%
x264 [info]: ref B L1: 94.2% 5.8%
x264 [info]: kb/s:2049.43
General
Unique ID : 239820720602712870502917699518296236618 (0xB46BCA6BED34895D8E0CE883B070224A)
Complete name : A Dog's Way Home (2019).mkv
Format : Matroska
Format version : Version 4
File size : 1.93 GiB
Duration : 1 h 35 min
Overall bit rate : 2 884 kb/s
Movie name : Путь домой / A Dog's Way Home (2019)
Encoded date : UTC 2019-04-05 20:35:49
Writing application : mkvmerge v8.1.0 ('Psychedelic Postcard') 64bit
Writing library : libebml v1.3.1 + libmatroska v1.4.2
Cover : Yes
Attachments : cover.jpg
Video
ID : 1
Format : AVC
Format/Info : Advanced Video Codec
Format profile : High@L4.1
Format settings : CABAC / 12 Ref Frames
Format settings, CABAC : Yes
Format settings, ReFrames : 12 frames
Codec ID : V_MPEG4/ISO/AVC
Duration : 1 h 35 min
Bit rate : 2 049 kb/s
Width : 960 pixels
Height : 402 pixels
Display aspect ratio : 2.40:1
Frame rate mode : Constant
Frame rate : 23.976 (24000/1001) FPS
Color space : YUV
Chroma subsampling : 4:2:0
Bit depth : 8 bits
Scan type : Progressive
Bits/(Pixel*Frame) : 0.221
Stream size : 1.37 GiB (71%)
Title : A Dog's Way Home (2019) By optik.1557
Writing library : x264 core 157 r2935 545de2f
Encoding settings : cabac=1 / ref=12 / deblock=1:-3:-2 / analyse=0x3:0x133 / me=umh / subme=10 / psy=1 / psy_rd=1.05:0.01 / mixed_ref=1 / me_range=48 / chroma_me=1 / trellis=2 / 8x8dct=1 / cqm=0 / deadzone=21,11 / fast_pskip=0 / chroma_qp_offset=-2 / threads=6 / lookahead_threads=1 / sliced_threads=0 / nr=0 / decimate=1 / interlaced=0 / bluray_compat=0 / constrained_intra=0 / bframes=15 / b_pyramid=2 / b_adapt=2 / b_bias=0 / direct=1 / weightb=1 / open_gop=0 / weightp=2 / keyint=250 / keyint_min=23 / scenecut=40 / intra_refresh=0 / rc_lookahead=60 / rc=crf / mbtree=0 / crf=18.2 / qcomp=0.70 / qpmin=0 / qpmax=69 / qpstep=4 / vbv_maxrate=50000 / vbv_bufsize=62500 / crf_max=0.0 / nal_hrd=none / filler=0 / ip_ratio=1.40 / pb_ratio=1.30 / aq=3:0.85
Language : English
Default : Yes
Forced : No
Audio #1
ID : 2
Format : AC-3
Format/Info : Audio Coding 3
Commercial name : Dolby Digital
Codec ID : A_AC3
Duration : 1 h 35 min
Bit rate mode : Constant
Bit rate : 384 kb/s
Channel(s) : 6 channels
Channel layout : L R C LFE Ls Rs
Sampling rate : 48.0 kHz
Frame rate : 31.250 FPS (1536 SPF)
Bit depth : 16 bits
Compression mode : Lossy
Stream size : 263 MiB (13%)
Title : Дубляж (iTunes)
Language : Russian
Service kind : Complete Main
Default : Yes
Forced : No
Audio #2
ID : 3
Format : AC-3
Format/Info : Audio Coding 3
Commercial name : Dolby Digital
Codec ID : A_AC3
Duration : 1 h 35 min
Bit rate mode : Constant
Bit rate : 448 kb/s
Channel(s) : 6 channels
Channel layout : L R C LFE Ls Rs
Sampling rate : 48.0 kHz
Frame rate : 31.250 FPS (1536 SPF)
Bit depth : 16 bits
Compression mode : Lossy
Stream size : 307 MiB (16%)
Title : Original
Language : English
Service kind : Complete Main
Default : No
Forced : No
Text #1
ID : 4
Format : UTF-8
Codec ID : S_TEXT/UTF8
Codec ID/Info : UTF-8 Plain Text
Duration : 1 h 32 min
Bit rate : 0 b/s
Count of elements : 8
Stream size : 475 Bytes (0%)
Title : Форсированные
Language : Russian
Default : Yes
Forced : No
Text #2
ID : 5
Format : UTF-8
Codec ID : S_TEXT/UTF8
Codec ID/Info : UTF-8 Plain Text
Duration : 1 h 34 min
Bit rate : 80 b/s
Count of elements : 1147
Stream size : 55.7 KiB (0%)
Title : Полные
Language : Russian
Default : No
Forced : No
Text #3
ID : 6
Format : UTF-8
Codec ID : S_TEXT/UTF8
Codec ID/Info : UTF-8 Plain Text
Duration : 1 h 29 min
Bit rate : 60 b/s
Count of elements : 1413
Stream size : 39.8 KiB (0%)
Title : SDH
Language : English
Default : No
Forced : No
Menu
00:00:00.000 : en:Chapter 01
00:06:45.113 : en:Chapter 02
00:11:38.114 : en:Chapter 03
00:18:29.358 : en:Chapter 04
00:21:30.956 : en:Chapter 05
00:27:09.419 : en:Chapter 06
00:33:17.871 : en:Chapter 07
00:39:45.133 : en:Chapter 08
00:48:28.823 : en:Chapter 09
00:53:55.774 : en:Chapter 10
01:01:23.513 : en:Chapter 11
01:06:28.193 : en:Chapter 12
01:10:10.289 : en:Chapter 13
01:15:09.505 : en:Chapter 14
01:17:34.608 : en:Chapter 15
01:24:09.962 : en:Chapter 16
[cybertorrent.ru].t1801.torrent 
Торрент: Зарегистрирован [ 2019-04-06 16:23 ] · 5FAFBF6EBF4B70FA683B66CB44D50D637EB7DC1A

Скачать .torrent

Скачать

20 KB

Статус: проверено
Скачан: 0 раз
Размер: 1,93 GB
terms.php
Показать сообщения:    

Текущее время: 17-Окт 07:54

Часовой пояс: UTC ± 0



Вы не можете начинать темы
Вы не можете отвечать на сообщения
Вы не можете редактировать свои сообщения
Вы не можете удалять свои сообщения
Вы не можете голосовать в опросах
Вы не можете прикреплять файлы к сообщениям
Вы можете скачивать файлы