BitTorrent клиенты



Беспредел. Бессмысленный и беспощадный. Смерть Николая Ежова (Виктор Правдюк) [2004-2016, Исторический, DVD5]

Ответить на тему
Статистика раздачи
Размер:  3,39 GB   |    Зарегистрирован:  11 месяцев 24 дня   |    Скачан:  0 раз

Полного источника не было: Никогда

 
   
 
 
Автор Сообщение

Ведьмочка ®

Пол: Не указан

Стаж: 1 год

Сообщений: 863

Создавать темы 25-Фев-2018 16:54

[Цитировать]

Беспредел. Бессмысленный и беспощадный. Смерть Николая Ежова
Год выпуска: 2004
Страна: Россия
Жанр: Исторический
Продолжительность: 3 ~ 00:25:00
Перевод: Не требуется
Русские субтитры: нет
Режиссер: В. Правдюк
Описание: 20-е столетие оказалось веком истребления русского народа. В больших и малых войнах, в самоубийственной гражданской войне, от репрессий безбожной власти, от голода и болезней погибли десятки миллионов людей. О репрессивной системе, выстроенной властью против собственного народа, рассказывают три этих фильма: "Беспредел" (2005, 00:25:30), "Бессмысленный и беспощадный" (2016, 00:27:09) и "Смерть Николая Ежова" (2014, 00:24:02).
Доп. информация: Производство "Сигма-Видео".
Бонусы: Отсутствуют.
Меню: Имеется, на русском, неанимированное, статичное, неозвученное.
Сэмпл: https://yadi.sk/i/9jMt3xXk3SVTrc
Главы (разбивка по трекам): есть
Качество: DVD5
Формат: DVD Video
Видео кодек: MPEG2
Аудио кодек: AC3
Видео: 6000 Кбит/сек, PAL 720*576 (4:3), 25,000 кадров/сек, MPEG2
Аудио: Русский, 224 Кбит/сек, 48,0 КГц, 2 канала, MPEG Audio

DVDInfo

Title: Беспредел. Бессмысленный и беспощадный. Смерть Николая Ежова
Size: 3.39 Gb ( 3 559 506 KBytes ) - DVD-5
Enabled regions: 1, 2, 3, 4, 5, 6, 7, 8
VTS_01 :
Play Length: 00:25:30
Video: PAL 4:3 (720x576) VBR
Audio:
Russian (MPEG1, 2 ch)
VTS_02 :
Play Length: 00:27:09
Video: PAL 4:3 (720x576) VBR
Audio:
Russian (MPEG1, 2 ch)
VTS_03 :
Play Length: 00:24:02
Video: PAL 4:3 (720x576) VBR
Audio:
Russian (MPEG1, 2 ch)
Menu Video:
PAL 4:3 (720x576) VBR
Menu Subtitles:
Not specified
Menu English Language Unit :
Root Menu

MediaInfo

Общее
Полное имя : J:\MONAR\Видео\Документальные фильмы\История России и мира\Беспредел. Бессмысленный и беспощадный. Смерть Николая Ежова\VIDEO_TS\VIDEO_TS.BUP
Формат : DVD Video
Профиль формата : Menu
Размер файла : 16,0 Кбайт
Режим общего битрейта : Переменный
FileExtension_Invalid : ifo
Видео
Идентификатор : 224 (0xE0)
Формат : MPEG Video
Версия формата : Version 2
Вид битрейта : Переменный
Ширина : 720 пикселей
Высота : 576 пикселей
Соотношение сторон : 4:3
Частота кадров : 25,000 кадров/сек
Стандарт вещания : PAL
Метод сжатия : С потерями
Текст
Формат : RLE
Формат/Информация : Run-length encoding
Битовая глубина : 2 бит
Общее
Полное имя : J:\MONAR\Видео\Документальные фильмы\История России и мира\Беспредел. Бессмысленный и беспощадный. Смерть Николая Ежова\VIDEO_TS\VIDEO_TS.IFO
Формат : DVD Video
Профиль формата : Menu
Размер файла : 16,0 Кбайт
Режим общего битрейта : Переменный
Видео
Идентификатор : 224 (0xE0)
Формат : MPEG Video
Версия формата : Version 2
Вид битрейта : Переменный
Ширина : 720 пикселей
Высота : 576 пикселей
Соотношение сторон : 4:3
Частота кадров : 25,000 кадров/сек
Стандарт вещания : PAL
Метод сжатия : С потерями
Текст
Формат : RLE
Формат/Информация : Run-length encoding
Битовая глубина : 2 бит
Общее
Полное имя : J:\MONAR\Видео\Документальные фильмы\История России и мира\Беспредел. Бессмысленный и беспощадный. Смерть Николая Ежова\VIDEO_TS\VIDEO_TS.VOB
Формат : MPEG-PS
Размер файла : 10,0 Кбайт
Продолжительность : 40 мс.
Режим общего битрейта : Постоянный
Общий поток : 2048 Кбит/сек
Видео
Идентификатор : 224 (0xE0)
Формат : MPEG Video
Версия формата : Version 2
Профиль формата : Main@Main
Настройки формата : CustomMatrix
Параметр BVOP формата : Нет
Параметр матрицы формата : Выборочная
Продолжительность : 40 мс.
Вид битрейта : Постоянный
Максимальный битрейт : 9000 Кбит/сек
Ширина : 720 пикселей
Высота : 576 пикселей
Соотношение сторон : 4:3
Частота кадров : 25,000 кадров/сек
Стандарт вещания : PAL
Цветовое пространство : YUV
Субдискретизация насыщенности : 4:2:0
Битовая глубина : 8 бит
Тип развёртки : Прогрессивная
Порядок развёртки : Верхнее поле первое
Метод сжатия : С потерями
Временной код первого кадра : 00:00:00:00
Оригинал временного кода : Group of pictures header
Основные цвета : BT.601 NTSC
Характеристики трансфера : BT.601
Коэффициенты матрицы : BT.601
Меню
Общее
Полное имя : J:\MONAR\Видео\Документальные фильмы\История России и мира\Беспредел. Бессмысленный и беспощадный. Смерть Николая Ежова\VIDEO_TS\VTS_01_0.BUP
Формат : DVD Video
Профиль формата : Program
Размер файла : 30,0 Кбайт
Продолжительность : 25 м. 30 с.
Режим общего битрейта : Переменный
Общий поток : 161 бит/сек
FileExtension_Invalid : ifo
Видео
Идентификатор : 224 (0xE0)
Формат : MPEG Video
Версия формата : Version 2
Продолжительность : 25 м. 30 с.
Вид битрейта : Переменный
Ширина : 720 пикселей
Высота : 576 пикселей
Соотношение сторон : 4:3
Частота кадров : 25,000 кадров/сек
Стандарт вещания : PAL
Метод сжатия : С потерями
Аудио
Идентификатор : 0 (0x0)
Формат : MPEG Audio
Профиль формата : Version 1
Продолжительность : 25 м. 30 с.
Каналы : 2 канала
Частота : 48,0 КГц
Метод сжатия : С потерями
Язык : Russian
Меню
Продолжительность : 25 м. 30 с.
00:00:00.000 : Chapter 1
00:02:59.720 : Chapter 2
00:05:59.840 : Chapter 3
00:09:00.000 : Chapter 4
00:11:59.760 : Chapter 5
00:14:59.720 : Chapter 6
00:17:59.800 : Chapter 7
00:20:59.440 : Chapter 8
00:23:59.560 : Chapter 9
00:25:29.760 : Chapter 10
List (Audio) : 0
Общее
Полное имя : J:\MONAR\Видео\Документальные фильмы\История России и мира\Беспредел. Бессмысленный и беспощадный. Смерть Николая Ежова\VIDEO_TS\VTS_01_0.IFO
Формат : DVD Video
Профиль формата : Program
Размер файла : 30,0 Кбайт
Продолжительность : 25 м. 30 с.
Режим общего битрейта : Переменный
Общий поток : 161 бит/сек
Видео
Идентификатор : 224 (0xE0)
Формат : MPEG Video
Версия формата : Version 2
Продолжительность : 25 м. 30 с.
Вид битрейта : Переменный
Ширина : 720 пикселей
Высота : 576 пикселей
Соотношение сторон : 4:3
Частота кадров : 25,000 кадров/сек
Стандарт вещания : PAL
Метод сжатия : С потерями
Аудио
Идентификатор : 0 (0x0)
Формат : MPEG Audio
Профиль формата : Version 1
Продолжительность : 25 м. 30 с.
Каналы : 2 канала
Частота : 48,0 КГц
Метод сжатия : С потерями
Язык : Russian
Меню
Продолжительность : 25 м. 30 с.
00:00:00.000 : Chapter 1
00:02:59.720 : Chapter 2
00:05:59.840 : Chapter 3
00:09:00.000 : Chapter 4
00:11:59.760 : Chapter 5
00:14:59.720 : Chapter 6
00:17:59.800 : Chapter 7
00:20:59.440 : Chapter 8
00:23:59.560 : Chapter 9
00:25:29.760 : Chapter 10
List (Audio) : 0
Общее
Полное имя : J:\MONAR\Видео\Документальные фильмы\История России и мира\Беспредел. Бессмысленный и беспощадный. Смерть Николая Ежова\VIDEO_TS\VTS_01_0.VOB
Формат : MPEG-PS
Размер файла : 144 Кбайт
Продолжительность : 125 мс.
Общий поток : 9437 Кбит/сек
Видео
Идентификатор : 224 (0xE0)
Формат : MPEG Video
Версия формата : Version 2
Профиль формата : Main@Main
Настройки формата : CustomMatrix
Параметр BVOP формата : Нет
Параметр матрицы формата : Выборочная
Продолжительность : 125 мс.
Вид битрейта : Постоянный
Максимальный битрейт : 9000 Кбит/сек
Ширина : 720 пикселей
Высота : 576 пикселей
Соотношение сторон : 4:3
Частота кадров : 25,000 кадров/сек
Стандарт вещания : PAL
Цветовое пространство : YUV
Субдискретизация насыщенности : 4:2:0
Битовая глубина : 8 бит
Тип развёртки : Прогрессивная
Порядок развёртки : Верхнее поле первое
Метод сжатия : С потерями
Основные цвета : BT.601 NTSC
Характеристики трансфера : BT.601
Коэффициенты матрицы : BT.601
Текст
Идентификатор : 189 (0xBD)-32 (0x20)
Формат : RLE
Формат/Информация : Run-length encoding
Режим смешивания : DVD-Video
Задержка видео : 85 мс.
Меню
Общее
Полное имя : J:\MONAR\Видео\Документальные фильмы\История России и мира\Беспредел. Бессмысленный и беспощадный. Смерть Николая Ежова\VIDEO_TS\VTS_01_1.VOB
Формат : MPEG-PS
Размер файла : 1024 Мбайт
Продолжительность : 22 м. 35 с.
Режим общего битрейта : Постоянный
Общий поток : 6338 Кбит/сек
Видео
Идентификатор : 224 (0xE0)
Формат : MPEG Video
Версия формата : Version 2
Профиль формата : Main@Main
Настройки формата : CustomMatrix / BVOP
Параметр BVOP формата : Да
Параметр матрицы формата : Выборочная
Параметр GOP формата : M=3, N=15
Структура изображения : Frame
Продолжительность : 22 м. 35 с.
Вид битрейта : Постоянный
Битрейт : 6000 Кбит/сек
Ширина : 720 пикселей
Высота : 576 пикселей
Соотношение сторон : 4:3
Частота кадров : 25,000 кадров/сек
Стандарт вещания : PAL
Цветовое пространство : YUV
Субдискретизация насыщенности : 4:2:0
Битовая глубина : 8 бит
Тип развёртки : Чересстрочная
Порядок развёртки : Верхнее поле первое
Метод сжатия : С потерями
Бит/(Пиксели*Кадры) : 0.579
Временной код первого кадра : 01:00:00:00
Оригинал временного кода : Group of pictures header
GOP, открыто/закрыто : Открыто
GOP, открыто/закрыто на первом кадре : Закрыто
Размер потока : 967 Мбайт (94%)
Аудио
Идентификатор : 192 (0xC0)
Формат : MPEG Audio
Версия формата : Version 1
Профиль формата : Layer 2
Продолжительность : 22 м. 35 с.
Вид битрейта : Постоянный
Битрейт : 224 Кбит/сек
Каналы : 2 канала
Частота : 48,0 КГц
Частота кадров : 41,667 кадра/сек (1152 SPF)
Метод сжатия : С потерями
Размер потока : 36,2 Мбайт (4%)
Меню
Общее
Полное имя : J:\MONAR\Видео\Документальные фильмы\История России и мира\Беспредел. Бессмысленный и беспощадный. Смерть Николая Ежова\VIDEO_TS\VTS_01_2.VOB
Формат : MPEG-PS
Размер файла : 132 Мбайт
Продолжительность : 2 м. 54 с.
Режим общего битрейта : Постоянный
Общий поток : 6335 Кбит/сек
Видео
Идентификатор : 224 (0xE0)
Формат : MPEG Video
Версия формата : Version 2
Профиль формата : Main@Main
Настройки формата : CustomMatrix / BVOP
Параметр BVOP формата : Да
Параметр матрицы формата : Выборочная
Параметр GOP формата : M=3, N=15
Структура изображения : Frame
Продолжительность : 2 м. 54 с.
Вид битрейта : Постоянный
Битрейт : 6000 Кбит/сек
Ширина : 720 пикселей
Высота : 576 пикселей
Соотношение сторон : 4:3
Частота кадров : 25,000 кадров/сек
Стандарт вещания : PAL
Цветовое пространство : YUV
Субдискретизация насыщенности : 4:2:0
Битовая глубина : 8 бит
Тип развёртки : Чересстрочная
Порядок развёртки : Верхнее поле первое
Метод сжатия : С потерями
Бит/(Пиксели*Кадры) : 0.579
Временной код первого кадра : 01:22:35:10
Оригинал временного кода : Group of pictures header
GOP, открыто/закрыто : Открыто
Размер потока : 125 Мбайт (95%)
Аудио
Идентификатор : 192 (0xC0)
Формат : MPEG Audio
Версия формата : Version 1
Профиль формата : Layer 2
Продолжительность : 2 м. 54 с.
Вид битрейта : Постоянный
Битрейт : 224 Кбит/сек
Каналы : 2 канала
Частота : 48,0 КГц
Частота кадров : 41,667 кадра/сек (1152 SPF)
Метод сжатия : С потерями
Задержка видео : -344 мс.
Размер потока : 4,66 Мбайт (4%)
Меню
Общее
Полное имя : J:\MONAR\Видео\Документальные фильмы\История России и мира\Беспредел. Бессмысленный и беспощадный. Смерть Николая Ежова\VIDEO_TS\VTS_02_0.BUP
Формат : DVD Video
Профиль формата : Program
Размер файла : 34,0 Кбайт
Продолжительность : 27 м. 9 с.
Режим общего битрейта : Переменный
Общий поток : 171 бит/сек
FileExtension_Invalid : ifo
Видео
Идентификатор : 224 (0xE0)
Формат : MPEG Video
Версия формата : Version 2
Продолжительность : 27 м. 9 с.
Вид битрейта : Переменный
Ширина : 720 пикселей
Высота : 576 пикселей
Соотношение сторон : 4:3
Частота кадров : 25,000 кадров/сек
Стандарт вещания : PAL
Метод сжатия : С потерями
Аудио
Идентификатор : 0 (0x0)
Формат : MPEG Audio
Профиль формата : Version 1
Продолжительность : 27 м. 9 с.
Каналы : 2 канала
Частота : 48,0 КГц
Метод сжатия : С потерями
Язык : Russian
Меню
Продолжительность : 27 м. 9 с.
00:00:00.000 : Chapter 1
00:02:59.960 : Chapter 2
00:05:59.960 : Chapter 3
00:08:59.760 : Chapter 4
00:11:59.720 : Chapter 5
00:14:59.640 : Chapter 6
00:17:59.640 : Chapter 7
00:20:59.920 : Chapter 8
00:23:59.520 : Chapter 9
00:26:59.640 : Chapter 10
00:27:08.680 : Chapter 11
List (Audio) : 0
Общее
Полное имя : J:\MONAR\Видео\Документальные фильмы\История России и мира\Беспредел. Бессмысленный и беспощадный. Смерть Николая Ежова\VIDEO_TS\VTS_02_0.IFO
Формат : DVD Video
Профиль формата : Program
Размер файла : 34,0 Кбайт
Продолжительность : 27 м. 9 с.
Режим общего битрейта : Переменный
Общий поток : 171 бит/сек
Видео
Идентификатор : 224 (0xE0)
Формат : MPEG Video
Версия формата : Version 2
Продолжительность : 27 м. 9 с.
Вид битрейта : Переменный
Ширина : 720 пикселей
Высота : 576 пикселей
Соотношение сторон : 4:3
Частота кадров : 25,000 кадров/сек
Стандарт вещания : PAL
Метод сжатия : С потерями
Аудио
Идентификатор : 0 (0x0)
Формат : MPEG Audio
Профиль формата : Version 1
Продолжительность : 27 м. 9 с.
Каналы : 2 канала
Частота : 48,0 КГц
Метод сжатия : С потерями
Язык : Russian
Меню
Продолжительность : 27 м. 9 с.
00:00:00.000 : Chapter 1
00:02:59.960 : Chapter 2
00:05:59.960 : Chapter 3
00:08:59.760 : Chapter 4
00:11:59.720 : Chapter 5
00:14:59.640 : Chapter 6
00:17:59.640 : Chapter 7
00:20:59.920 : Chapter 8
00:23:59.520 : Chapter 9
00:26:59.640 : Chapter 10
00:27:08.680 : Chapter 11
List (Audio) : 0
Общее
Полное имя : J:\MONAR\Видео\Документальные фильмы\История России и мира\Беспредел. Бессмысленный и беспощадный. Смерть Николая Ежова\VIDEO_TS\VTS_02_0.VOB
Формат : MPEG-PS
Размер файла : 10,0 Кбайт
Продолжительность : 40 мс.
Режим общего битрейта : Постоянный
Общий поток : 2048 Кбит/сек
Видео
Идентификатор : 224 (0xE0)
Формат : MPEG Video
Версия формата : Version 2
Профиль формата : Main@Main
Настройки формата : CustomMatrix
Параметр BVOP формата : Нет
Параметр матрицы формата : Выборочная
Продолжительность : 40 мс.
Вид битрейта : Постоянный
Максимальный битрейт : 9000 Кбит/сек
Ширина : 720 пикселей
Высота : 576 пикселей
Соотношение сторон : 4:3
Частота кадров : 25,000 кадров/сек
Стандарт вещания : PAL
Цветовое пространство : YUV
Субдискретизация насыщенности : 4:2:0
Битовая глубина : 8 бит
Тип развёртки : Прогрессивная
Порядок развёртки : Верхнее поле первое
Метод сжатия : С потерями
Временной код первого кадра : 00:00:00:00
Оригинал временного кода : Group of pictures header
Основные цвета : BT.601 NTSC
Характеристики трансфера : BT.601
Коэффициенты матрицы : BT.601
Меню
Общее
Полное имя : J:\MONAR\Видео\Документальные фильмы\История России и мира\Беспредел. Бессмысленный и беспощадный. Смерть Николая Ежова\VIDEO_TS\VTS_02_1.VOB
Формат : MPEG-PS
Размер файла : 1024 Мбайт
Продолжительность : 22 м. 35 с.
Режим общего битрейта : Постоянный
Общий поток : 6337 Кбит/сек
Видео
Идентификатор : 224 (0xE0)
Формат : MPEG Video
Версия формата : Version 2
Профиль формата : Main@Main
Настройки формата : CustomMatrix / BVOP
Параметр BVOP формата : Да
Параметр матрицы формата : Выборочная
Параметр GOP формата : M=3, N=15
Структура изображения : Frame
Продолжительность : 22 м. 35 с.
Вид битрейта : Постоянный
Битрейт : 6000 Кбит/сек
Ширина : 720 пикселей
Высота : 576 пикселей
Соотношение сторон : 4:3
Частота кадров : 25,000 кадров/сек
Стандарт вещания : PAL
Цветовое пространство : YUV
Субдискретизация насыщенности : 4:2:0
Битовая глубина : 8 бит
Тип развёртки : Чересстрочная
Порядок развёртки : Верхнее поле первое
Метод сжатия : С потерями
Бит/(Пиксели*Кадры) : 0.579
Временной код первого кадра : 00:00:00:00
Оригинал временного кода : Group of pictures header
GOP, открыто/закрыто : Открыто
GOP, открыто/закрыто на первом кадре : Закрыто
Размер потока : 967 Мбайт (94%)
Аудио
Идентификатор : 192 (0xC0)
Формат : MPEG Audio
Версия формата : Version 1
Профиль формата : Layer 2
Продолжительность : 22 м. 35 с.
Вид битрейта : Постоянный
Битрейт : 224 Кбит/сек
Каналы : 2 канала
Частота : 48,0 КГц
Частота кадров : 41,667 кадра/сек (1152 SPF)
Метод сжатия : С потерями
Размер потока : 36,2 Мбайт (4%)
Меню
Общее
Полное имя : J:\MONAR\Видео\Документальные фильмы\История России и мира\Беспредел. Бессмысленный и беспощадный. Смерть Николая Ежова\VIDEO_TS\VTS_02_2.VOB
Формат : MPEG-PS
Размер файла : 207 Мбайт
Продолжительность : 4 м. 33 с.
Режим общего битрейта : Постоянный
Общий поток : 6337 Кбит/сек
Видео
Идентификатор : 224 (0xE0)
Формат : MPEG Video
Версия формата : Version 2
Профиль формата : Main@Main
Настройки формата : CustomMatrix / BVOP
Параметр BVOP формата : Да
Параметр матрицы формата : Выборочная
Параметр GOP формата : M=3, N=15
Структура изображения : Frame
Продолжительность : 4 м. 33 с.
Вид битрейта : Постоянный
Битрейт : 6000 Кбит/сек
Ширина : 720 пикселей
Высота : 576 пикселей
Соотношение сторон : 4:3
Частота кадров : 25,000 кадров/сек
Стандарт вещания : PAL
Цветовое пространство : YUV
Субдискретизация насыщенности : 4:2:0
Битовая глубина : 8 бит
Тип развёртки : Чересстрочная
Порядок развёртки : Верхнее поле первое
Метод сжатия : С потерями
Бит/(Пиксели*Кадры) : 0.579
Временной код первого кадра : 00:22:35:16
Оригинал временного кода : Group of pictures header
GOP, открыто/закрыто : Открыто
Размер потока : 196 Мбайт (95%)
Аудио
Идентификатор : 192 (0xC0)
Формат : MPEG Audio
Версия формата : Version 1
Профиль формата : Layer 2
Продолжительность : 4 м. 33 с.
Вид битрейта : Постоянный
Битрейт : 224 Кбит/сек
Каналы : 2 канала
Частота : 48,0 КГц
Частота кадров : 41,667 кадра/сек (1152 SPF)
Метод сжатия : С потерями
Задержка видео : -440 мс.
Размер потока : 7,30 Мбайт (4%)
Меню
Общее
Полное имя : J:\MONAR\Видео\Документальные фильмы\История России и мира\Беспредел. Бессмысленный и беспощадный. Смерть Николая Ежова\VIDEO_TS\VTS_03_0.BUP
Формат : DVD Video
Профиль формата : Program
Размер файла : 30,0 Кбайт
Продолжительность : 24 м. 2 с.
Режим общего битрейта : Переменный
Общий поток : 170 бит/сек
FileExtension_Invalid : ifo
Видео
Идентификатор : 224 (0xE0)
Формат : MPEG Video
Версия формата : Version 2
Продолжительность : 24 м. 2 с.
Вид битрейта : Переменный
Ширина : 720 пикселей
Высота : 576 пикселей
Соотношение сторон : 4:3
Частота кадров : 25,000 кадров/сек
Стандарт вещания : PAL
Метод сжатия : С потерями
Аудио
Идентификатор : 0 (0x0)
Формат : MPEG Audio
Профиль формата : Version 1
Продолжительность : 24 м. 2 с.
Каналы : 2 канала
Частота : 48,0 КГц
Метод сжатия : С потерями
Язык : Russian
Меню
Продолжительность : 24 м. 2 с.
00:00:00.000 : Chapter 1
00:03:00.000 : Chapter 2
00:05:59.560 : Chapter 3
00:08:59.720 : Chapter 4
00:11:59.680 : Chapter 5
00:14:59.920 : Chapter 6
00:17:59.600 : Chapter 7
00:20:59.520 : Chapter 8
00:23:59.920 : Chapter 9
00:24:02.080 : Chapter 10
List (Audio) : 0
Общее
Полное имя : J:\MONAR\Видео\Документальные фильмы\История России и мира\Беспредел. Бессмысленный и беспощадный. Смерть Николая Ежова\VIDEO_TS\VTS_03_0.IFO
Формат : DVD Video
Профиль формата : Program
Размер файла : 30,0 Кбайт
Продолжительность : 24 м. 2 с.
Режим общего битрейта : Переменный
Общий поток : 170 бит/сек
Видео
Идентификатор : 224 (0xE0)
Формат : MPEG Video
Версия формата : Version 2
Продолжительность : 24 м. 2 с.
Вид битрейта : Переменный
Ширина : 720 пикселей
Высота : 576 пикселей
Соотношение сторон : 4:3
Частота кадров : 25,000 кадров/сек
Стандарт вещания : PAL
Метод сжатия : С потерями
Аудио
Идентификатор : 0 (0x0)
Формат : MPEG Audio
Профиль формата : Version 1
Продолжительность : 24 м. 2 с.
Каналы : 2 канала
Частота : 48,0 КГц
Метод сжатия : С потерями
Язык : Russian
Меню
Продолжительность : 24 м. 2 с.
00:00:00.000 : Chapter 1
00:03:00.000 : Chapter 2
00:05:59.560 : Chapter 3
00:08:59.720 : Chapter 4
00:11:59.680 : Chapter 5
00:14:59.920 : Chapter 6
00:17:59.600 : Chapter 7
00:20:59.520 : Chapter 8
00:23:59.920 : Chapter 9
00:24:02.080 : Chapter 10
List (Audio) : 0
Общее
Полное имя : J:\MONAR\Видео\Документальные фильмы\История России и мира\Беспредел. Бессмысленный и беспощадный. Смерть Николая Ежова\VIDEO_TS\VTS_03_0.VOB
Формат : MPEG-PS
Размер файла : 10,0 Кбайт
Продолжительность : 40 мс.
Режим общего битрейта : Постоянный
Общий поток : 2048 Кбит/сек
Видео
Идентификатор : 224 (0xE0)
Формат : MPEG Video
Версия формата : Version 2
Профиль формата : Main@Main
Настройки формата : CustomMatrix
Параметр BVOP формата : Нет
Параметр матрицы формата : Выборочная
Продолжительность : 40 мс.
Вид битрейта : Постоянный
Максимальный битрейт : 9000 Кбит/сек
Ширина : 720 пикселей
Высота : 576 пикселей
Соотношение сторон : 4:3
Частота кадров : 25,000 кадров/сек
Стандарт вещания : PAL
Цветовое пространство : YUV
Субдискретизация насыщенности : 4:2:0
Битовая глубина : 8 бит
Тип развёртки : Прогрессивная
Порядок развёртки : Верхнее поле первое
Метод сжатия : С потерями
Временной код первого кадра : 00:00:00:00
Оригинал временного кода : Group of pictures header
Основные цвета : BT.601 NTSC
Характеристики трансфера : BT.601
Коэффициенты матрицы : BT.601
Меню
Общее
Полное имя : J:\MONAR\Видео\Документальные фильмы\История России и мира\Беспредел. Бессмысленный и беспощадный. Смерть Николая Ежова\VIDEO_TS\VTS_03_1.VOB
Формат : MPEG-PS
Размер файла : 1024 Мбайт
Продолжительность : 22 м. 35 с.
Режим общего битрейта : Постоянный
Общий поток : 6337 Кбит/сек
Видео
Идентификатор : 224 (0xE0)
Формат : MPEG Video
Версия формата : Version 2
Профиль формата : Main@Main
Настройки формата : CustomMatrix / BVOP
Параметр BVOP формата : Да
Параметр матрицы формата : Выборочная
Параметр GOP формата : M=3, N=15
Структура изображения : Frame
Продолжительность : 22 м. 35 с.
Вид битрейта : Постоянный
Битрейт : 6000 Кбит/сек
Ширина : 720 пикселей
Высота : 576 пикселей
Соотношение сторон : 4:3
Частота кадров : 25,000 кадров/сек
Стандарт вещания : PAL
Цветовое пространство : YUV
Субдискретизация насыщенности : 4:2:0
Битовая глубина : 8 бит
Тип развёртки : Чересстрочная
Порядок развёртки : Верхнее поле первое
Метод сжатия : С потерями
Бит/(Пиксели*Кадры) : 0.579
Временной код первого кадра : 02:50:00:00
Оригинал временного кода : Group of pictures header
GOP, открыто/закрыто : Открыто
GOP, открыто/закрыто на первом кадре : Закрыто
Размер потока : 967 Мбайт (94%)
Аудио
Идентификатор : 192 (0xC0)
Формат : MPEG Audio
Версия формата : Version 1
Профиль формата : Layer 2
Продолжительность : 22 м. 35 с.
Вид битрейта : Постоянный
Битрейт : 224 Кбит/сек
Каналы : 2 канала
Частота : 48,0 КГц
Частота кадров : 41,667 кадра/сек (1152 SPF)
Метод сжатия : С потерями
Размер потока : 36,2 Мбайт (4%)
Меню
Общее
Полное имя : J:\MONAR\Видео\Документальные фильмы\История России и мира\Беспредел. Бессмысленный и беспощадный. Смерть Николая Ежова\VIDEO_TS\VTS_03_2.VOB
Формат : MPEG-PS
Размер файла : 65,4 Мбайт
Продолжительность : 1 м. 26 с.
Режим общего битрейта : Постоянный
Общий поток : 6337 Кбит/сек
Видео
Идентификатор : 224 (0xE0)
Формат : MPEG Video
Версия формата : Version 2
Профиль формата : Main@Main
Настройки формата : CustomMatrix / BVOP
Параметр BVOP формата : Да
Параметр матрицы формата : Выборочная
Параметр GOP формата : M=3, N=15
Структура изображения : Frame
Продолжительность : 1 м. 26 с.
Вид битрейта : Постоянный
Битрейт : 6000 Кбит/сек
Ширина : 720 пикселей
Высота : 576 пикселей
Соотношение сторон : 4:3
Частота кадров : 25,000 кадров/сек
Стандарт вещания : PAL
Цветовое пространство : YUV
Субдискретизация насыщенности : 4:2:0
Битовая глубина : 8 бит
Тип развёртки : Чересстрочная
Порядок развёртки : Верхнее поле первое
Метод сжатия : С потерями
Бит/(Пиксели*Кадры) : 0.579
Временной код первого кадра : 03:12:35:23
Оригинал временного кода : Group of pictures header
GOP, открыто/закрыто : Открыто
Размер потока : 61,9 Мбайт (95%)
Аудио
Идентификатор : 192 (0xC0)
Формат : MPEG Audio
Версия формата : Version 1
Профиль формата : Layer 2
Продолжительность : 1 м. 26 с.
Вид битрейта : Постоянный
Битрейт : 224 Кбит/сек
Каналы : 2 канала
Частота : 48,0 КГц
Частота кадров : 41,667 кадра/сек (1152 SPF)
Метод сжатия : С потерями
Задержка видео : -432 мс.
Размер потока : 2,31 Мбайт (4%)
Меню

Скриншоты меню

Скриншоты

Анаморфированные скриншоты

Обложка и диск

[cybertorrent.ru].t18111.torrent 
Торрент: Зарегистрирован [ 2018-02-25 16:55 ] · EF98B8EEA386CAFFCE60C26EC496031CBBB18BFA

Скачать .torrent

Скачать

19 KB

Статус: проверено
Скачан: 0 раз
Размер: 3,39 GB
terms.php
[Профиль] [ЛС]
Показать сообщения:    
Ответить на тему

Текущее время: 22-Фев 03:14

Часовой пояс: UTC + 3



Вы не можете начинать темы
Вы не можете отвечать на сообщения
Вы не можете редактировать свои сообщения
Вы не можете удалять свои сообщения
Вы не можете голосовать в опросах
Вы не можете прикреплять файлы к сообщениям
Вы можете скачивать файлы