Статистика раздачи
Размер:  1,16 GB   |    Зарегистрирован:  6 месяцев 15 дней   |    Скачан:  0 раз
Сидов:  41  [  0 KB/s  ]   Личеров:  2  [  0 KB/s  ]  
   
 

Гость ®

Пол:
Не указан

Дама треф
Год выпуска: 2019
Производство: NRG Film
Жанр: детектив
Продолжительность: ~00:45:00 серия
Субтитры: нет
Режиссёр: Филипп Коршунов
В ролях: Андрей Чернышов, Екатерина Соломатина, Евгения Ахременко, Наиль Абдрахманов, Александр Шам, Артур Бичахчян, Мила Колесникова, Сергей Галахов, Дмитрий Смирнов , Михаил Дорожкин, Анна Сафонова, Владимир Малков, Павел Прибыток, Павел Абдалов, Сергей Холмогоров, Михаил Владимиров, Екатерина Вуличенко, Роман Куперман, Антон Вохмин, Денис Яковлев, Сергей Погосян, Константин Быков
Описание: Майор Павел Викторов назначен начальником ГУВД в город своего детства – тихий подмосковный Валуев. Его жена Ксения планирует устроить мужа на новом месте и вернуться в Москву – там её работа, там сын-первокурсник. Но человек, как известно, предполагает... Патриархальный Валуев встречает Викторовых пожаром, в котором гибнут двое молодых цыган. Местные правоохранители говорят о несчастном случае, цыганский барон – об убийстве, которое "как обычно" не будет раскрыто. Расследуя с помощью Ксении это простое , на первый взгляд, дело, Павел обнаруживает тайную криминальную жизнь Валуева, продолжающуюся не одно десятилетие... От идеи "гостевого брака" Ксении тоже приходится отказаться. Оказывается, в Валуеве служит их бывшая однокурсница Татьяна – первая любовь Павла. Сразу не разобрать, чего Татьяна хочет больше: вернуть Павла или втянуть честного полицейского в тёмные дела. Но Ксении ясно, что мужа надо спасать...

Реклама: Нет.
Кинопоиск
Все раздачи сериала
Sample
Качество: WEBRip - Files-x
Формат: AVI
Видео кодек: XviD
Аудио кодек: AC3
Видео: 720x400 (1.80:1), 25 fps, XviD build 73 ~1600 kbps avg, 0.222 bit/pixel
Аудио: 48.0 kHz, AC3 Dolby Digital, 2/0 (L,R) ch, ~ 192 kbps

MI

General
Complete name : D:\Дама Треф (2019). WEB-DLRip. Files-x\01. Дама Треф.2019. .WEB-DLRip. Files-х.avi
Format : AVI
Format/Info : Audio Video Interleave
File size : 586 MiB
Duration : 45 min 28 s
Overall bit rate : 1 802 kb/s
Writing application : VirtualDubMod 1.5.10.3 | www.virtualdub-fr.org || (build 2550/release)
Writing library : VirtualDubMod build 2550/release
Video
ID : 0
Format : MPEG-4 Visual
Format profile : Advanced Simple@L5
Format settings : BVOP1 / Custom Matrix
Format settings, BVOP : 1
Format settings, QPel : No
Format settings, GMC : No warppoints
Format settings, Matrix : Custom
Codec ID : XVID
Codec ID/Hint : XviD
Duration : 45 min 28 s
Bit rate : 1 600 kb/s
Width : 720 pixels
Height : 400 pixels
Display aspect ratio : 16:9
Frame rate : 25.000 FPS
Color space : YUV
Chroma subsampling : 4:2:0
Bit depth : 8 bits
Scan type : Progressive
Compression mode : Lossy
Bits/(Pixel*Frame) : 0.222
Stream size : 520 MiB (89%)
Writing library : XviD 73
Audio
ID : 1
Format : AC-3
Format/Info : Audio Coding 3
Codec ID : 2000
Duration : 45 min 28 s
Bit rate mode : Constant
Bit rate : 192 kb/s
Channel(s) : 2 channels
Channel positions : Front: L R
Sampling rate : 48.0 kHz
Frame rate : 31.250 FPS (1536 SPF)
Bit depth : 16 bits
Compression mode : Lossy
Stream size : 62.4 MiB (11%)
Alignment : Split accross interleaves
Interleave, duration : 40 ms (1.00 video frame)
Interleave, preload duratio : 500 ms
Service kind : Complete Main

Скриншоты


[cybertorrent.ru].t1813.torrent 
Торрент: Зарегистрирован [ 2019-04-06 16:23 ] · 8AFD7703B7B95A14C07115279670F7D76C338F3D

Скачать .torrent

Скачать

12 KB

Статус: проверено
Скачан: 0 раз
Размер: 1,16 GB
terms.php
Показать сообщения:    

Текущее время: 22-Окт 08:18

Часовой пояс: UTC ± 0



Вы не можете начинать темы
Вы не можете отвечать на сообщения
Вы не можете редактировать свои сообщения
Вы не можете удалять свои сообщения
Вы не можете голосовать в опросах
Вы не можете прикреплять файлы к сообщениям
Вы можете скачивать файлы