Статистика раздачи
Размер:  15,48 GB   |    Зарегистрирован:  4 месяца 27 дней   |    Скачан:  0 раз

Полного источника не было: Никогда

 
   
 
 

martin ®

Пол:
Не указан
Стаж:
5 месяцев
Сообщений:
47

Легенда о Корре / The Legend Of Korra
Страна: США
Жанр: мультфильм, фэнтези, боевик, приключения
Продолжительность: 00:24:00
Год выпуска: 2013
Перевод: Профессиональный (дублированный)
Перевод 2: Любительский (многоголосый закадровый,Flux-Team)
Перевод 3: Любительский (украинский многоголосый закадровый,FanVoxUA)
Русские субтитры: есть
Режиссёр: Майкл Данте Димартино, Брайан Кониецко / Michael Dante DiMartino, Bryan Konietzko
Роли озвучивали: Владимир Антоник, Ольга Шорохова, Мария Овчинникова, Никита Прозоровский, Александр Гаврилин, Валерий Сторожик, Людмила Шувалова, Ольга Сирина.
Описание: Действие сериала разворачивается через полгода после победы аватара Корры над Амоном и Уравнителями. Совет был распущен, и Объединенная Республика выбрала своего первого президента. Брат Тензина, командир Буми, ушел в отставку и перебрался на Остров Храма Воздуха. В Республиканский город пришли мир и гармония, но Аватар даже не подозревает, что Южное Племя Воды находится в огромной опасности

Список серий

01.Мятежный дух
02. Южное сияние
03. Гражданские войны, Часть 1
04. Гражданские войны, Часть 2
05. Миротворцы
06. Операция Жало
07. Начало, часть 1
08. Начало, часть 2
09. Проводник
10. Новая Духовная Эра
11. Ночь Тысячи Звезд
12. Гармоническое Сближение
13. Тьма Надвигается
14. Свет Во Тьме

Внимание!Раздача ведётся путём добавления новых серий

Внимание! Раздача ведётся путём добавления новых серий; при каждом добавлении создаётся новый торрент. Чтобы начать докачку новой серии, пользователям необходимо сделать следующее:
(1) остановить скачивание,
(2) удалить старый торрент у себя из клиента (старые серии удалять не надо),
(3) скачать новый торрент и запустить его у себя в клиенте вместо старого, при этом указать клиенту путь в старую папку куда и должно происходить скачивание новых серий.
Ваш клиент при этом должен произвести хеширование (проверку) старой папки (если не производит сам - помогите ему сделать это), и будет докачивать только те серии которых у вас ещё нет. Старые серии при этом не удаляются, а продолжают раздаваться!
Eсли вы уже удалили старые серии, то предотвратить повторную закачку старых серий можно, отжав галочку в соответствующих местах при запуске нового торрента. По возможности, желательно не удалять старые серии как можно дольше чтобы релизёр не столько продолжал раздавать старые серии, а смог сконцентрироваться на новых.
Ссылка на предыдущие и альтернативные раздачи: http://cybertorrent.ru/tracker.php?nm=Legend%20of%20Korra
Семпл: http://multi-up.com/955215
Качество: WEB-DL 1080p
Формат: MKV
Видео: AVC,1920x1080,23.976 fps,7000 kbps
Аудио: Русский(Дубляж),48 kHz,2 ch,384 kbps
Аудио 2: Русский(Flux-Team),48 kHz,6 ch,384 kbps
Аудио 3: Украинский(FanVoxUA),48 kHz,6 ch,384 kbps
Аудио 4: English,48 kHz,6 ch,384 kbps
Субтитры: Русские(korraavatar),английские

Подробные технические данные

Общее
Уникальный идентификатор : 194475509523708201860499743652470410619 (0x924E9EE7C76F1E268CA2E424DFD14D7B)
Полное имя : D:\Видео\The.Legend.of.Korra.S02.Dub.WEB-DLRip\The.Legend.of.Korra.S02E01.Dub.WEB-DLRip.mkv
Формат : Matroska
Версия формата : Version 4 / Version 2
Размер файла : 1,17 Гбайт
Продолжительность : 23 м.
Общий поток : 6980 Кбит/сек
Дата кодирования : UTC 2014-02-28 11:18:34
Программа кодирования : mkvmerge v6.7.0 ('Back to the Ground') 64bit built on Jan 8 2014 15:10:52
Библиотека кодирования : libebml v1.3.0 + libmatroska v1.4.1
Attachment : Yes
Видео
Идентификатор : 1
Формат : AVC
Формат/Информация : Advanced Video Codec
Профиль формата : High@L4.0
Параметр CABAC формата : Да
Параметр ReFrames формата : 4 кадра
Идентификатор кодека : V_MPEG4/ISO/AVC
Продолжительность : 23 м.
Битрейт : 5305 Кбит/сек
Ширина : 1912 пикселей
Высота : 1072 пикселя
Соотношение сторон : 16:9
Режим частоты кадров : Постоянный
Частота кадров : 23,976 кадра/сек
Цветовое пространство : YUV
Субдискретизация насыщенности : 4:2:0
Битовая глубина : 8 бит
Тип развёртки : Прогрессивная
Бит/(Пиксели*Кадры) : 0.108
Размер потока : 909 Мбайт (76%)
Язык : English
Default : Да
Forced : Нет
Основные цвета : BT.709
Характеристики трансфера : BT.709
Коэффициенты матрицы : BT.709
Аудио #1
Идентификатор : 2
Формат : AC-3
Формат/Информация : Audio Coding 3
Расширение режима : CM (complete main)
Параметр Endianness формата : Big
Идентификатор кодека : A_AC3
Продолжительность : 23 м.
Вид битрейта : Постоянный
Битрейт : 384 Кбит/сек
Каналы : 2 канала
Расположение каналов : Front: L R
Частота : 48,0 КГц
Битовая глубина : 16 бит
Метод сжатия : С потерями
Размер потока : 65,8 Мбайт (6%)
Заголовок : Дубляж Nickelodeon 2ch 384kb/s
Язык : Russian
Default : Да
Forced : Нет
Аудио #2
Идентификатор : 3
Формат : AC-3
Формат/Информация : Audio Coding 3
Расширение режима : CM (complete main)
Параметр Endianness формата : Big
Идентификатор кодека : A_AC3
Продолжительность : 23 м.
Вид битрейта : Постоянный
Битрейт : 384 Кбит/сек
Каналы : 6 каналов
Расположение каналов : Front: L C R, Side: L R, LFE
Частота : 48,0 КГц
Битовая глубина : 16 бит
Метод сжатия : С потерями
Размер потока : 65,8 Мбайт (6%)
Заголовок : FluxTeam 6 ch 384 kb/s
Язык : Russian
Default : Нет
Forced : Нет
Аудио #3
Идентификатор : 4
Формат : AC-3
Формат/Информация : Audio Coding 3
Расширение режима : CM (complete main)
Параметр Endianness формата : Big
Идентификатор кодека : A_AC3
Продолжительность : 23 м.
Вид битрейта : Постоянный
Битрейт : 384 Кбит/сек
Каналы : 6 каналов
Расположение каналов : Front: L C R, Side: L R, LFE
Частота : 48,0 КГц
Битовая глубина : 16 бит
Метод сжатия : С потерями
Размер потока : 65,8 Мбайт (6%)
Заголовок : FanVoxUA 6ch 384 kb/s
Язык : Ukrainian
Default : Нет
Forced : Нет
Аудио #4
Идентификатор : 5
Формат : AC-3
Формат/Информация : Audio Coding 3
Расширение режима : CM (complete main)
Параметр Endianness формата : Big
Идентификатор кодека : A_AC3
Продолжительность : 23 м.
Вид битрейта : Постоянный
Битрейт : 384 Кбит/сек
Каналы : 6 каналов
Расположение каналов : Front: L C R, Side: L R, LFE
Частота : 48,0 КГц
Битовая глубина : 16 бит
Метод сжатия : С потерями
Размер потока : 65,8 Мбайт (6%)
Язык : English
Default : Нет
Forced : Нет
Текст #1
Идентификатор : 6
Формат : ASS
Идентификатор кодека : S_TEXT/ASS
Идентификатор кодека/Информация : Advanced Sub Station Alpha
Метод сжатия : Без потерь
Язык : Russian
Default : Нет
Forced : Нет
Текст #2
Идентификатор : 7
Формат : UTF-8
Идентификатор кодека : S_TEXT/UTF8
Идентификатор кодека/Информация : UTF-8 Plain Text
Язык : English
Default : Нет
Forced : Нет

Скриншоты




[cybertorrent.ru].t1816.torrent 
Торрент: Зарегистрирован [ 2018-02-16 08:44 ] · 2AE64620256C6F2A55468C0A9885194738A9421A

Скачать .torrent

Скачать

40 KB

Статус: проверено
Скачан: 0 раз
Размер: 15,48 GB
Профиль [ЛС]
Показать сообщения:    

Текущее время: 15-Июл 21:22

Часовой пояс: UTC ± 0



Вы не можете начинать темы
Вы не можете отвечать на сообщения
Вы не можете редактировать свои сообщения
Вы не можете удалять свои сообщения
Вы не можете голосовать в опросах
Вы не можете прикреплять файлы к сообщениям
Вы можете скачивать файлы