BitTorrent клиенты



Фимпен / Fimpen (Бу Видерберг / Bo Widerberg) [1974, Швеция, семейный, спорт, DVDRip] AVO (Сергей Кузнецов) + Original Swe

Ответить на тему
Статистика раздачи
Размер:  1,42 GB   |    Зарегистрирован:  11 месяцев 24 дня   |    Скачан:  0 раз

Полного источника не было: Никогда

 
   
 
 
Автор Сообщение

ingiz ®

Пол: Не указан

Стаж: 1 год

Сообщений: 1731

Создавать темы 25-Фев-2018 16:52

[Цитировать]

Фимпен / Fimpen
Страна: Швеция
Жанр: семейный, спорт
Год выпуска: 1974
Продолжительность: 01:23:38
Перевод: Авторский (одноголосый закадровый) Сергей Кузнецов
Субтитры: нет
Оригинальная аудиодорожка: шведский
Режиссер: Бу Видерберг / Bo Widerberg
В ролях: Йохан Бергман, Моника Зеттерлунд, Магнус Харенстам, Эрнст-Хуго Ярегорд, Карл Бильквист, Стиг Оссиан Эриксон, Аннели Бергман, Арни Бергман, Ингер Бергман и др.
Описание: Шестилетний Йохан, по прозвищу Фимпен, очень любит футбол. Однажды его заметили и пройдет немного времени, как он будет играть в составе национальной команды и станет кумиром болельщиков. Но это трудно совмещать с учебой в школе…
Доп. информация: Релиз
В фильме использованы фрагменты футбольного матча СССР - ШВЕЦИЯ - 0:0
5 августа 1973 г.
Товарищеский матч.
Москва. Центральный стадион им. В.И. Ленина. 39512 зрителей.
Судья: Йозеф Йегель (Австрия).
СССР: Евгений Рудаков, Реваз Дзодзуашвили (Александр Дерёмов, 81), Муртаз Хурцилава (к) (Сергей Ольшанский, 17), Евгений Ловчев, Михаил Фоменко, Виктор Кузнецов, Владимир Мунтян, Анатолий Коньков, Анатолий Кожемякин, Вадим Никонов (Владимир Гуцаев, 55), Олег Блохин.
Тренер: Евгений Горянский.
Швеция: Ронни Хелльстрём, Ян Ульссон, Лейф Мольберг, Кент Карлссон, Роланд Грип (к), Стаффан Таппер, Бу Ларссон, Конни Торстенссон (Ларс-Ёран Андерссон, 68), Бенну Магнуссон (Конни Андерссон, 84), Уве Киндвалль (Ян Шёстрём, 60), Ян Матссон.
Тренер: Георг Эрикссон.

Сэмпл: http://multi-up.com/1188462
Качество видео: DVDRip
Формат видео: AVI
Видео: 704x288 (2.44:1), 25 fps, XviD build 64, 2033 kbps avg, 0.40 bit/pixel
Аудио: Русский AC3 Dolby Digital, 2/0 (L,R) ch, 48 kHz, 192 kbps
Аудио 2: Шведский AC3 Dolby Digital, 2/0 (L,R) ch, 48 kHz, 192 kbps

MediaInfo

Общее
Полное имя : E:\CD\Fimpen 1974 Rus.avi
Формат : AVI
Формат/Информация : Audio Video Interleave
Размер файла : 1,42 Гбайт
Продолжительность : 1 ч. 23 м.
Общий поток : 2433 Кбит/сек
Видео
Идентификатор : 0
Формат : MPEG-4 Visual
Профиль формата : Advanced Simple@L5
Параметр BVOP формата : 2
Параметр QPel формата : Нет
Параметр GMC формата : Без точки перехода
Параметр матрицы формата : Default (H.263)
Идентификатор кодека : XVID
Идентификатор кодека/Подсказка : XviD
Продолжительность : 1 ч. 23 м.
Битрейт : 2034 Кбит/сек
Ширина : 704 пикселя
Высота : 288 пикселей
Соотношение сторон : 2,40:1
Частота кадров : 25,000 кадров/сек
Цветовое пространство : YUV
Субдискретизация насыщенности : 4:2:0
Битовая глубина : 8 бит
Тип развёртки : Прогрессивная
Метод сжатия : С потерями
Бит/(Пиксели*Кадры) : 0.401
Размер потока : 1,19 Гбайт (84%)
Библиотека кодирования : XviD 64
Аудио #1
Идентификатор : 1
Формат : AC-3
Формат/Информация : Audio Coding 3
Расширение режима : CM (complete main)
Параметр Endianness формата : Big
Идентификатор кодека : 2000
Продолжительность : 1 ч. 23 м.
Вид битрейта : Постоянный
Битрейт : 192 Кбит/сек
Каналы : 2 канала
Расположение каналов : Front: L R
Частота : 48,0 КГц
Частота кадров : 31,250 кадров/сек (1536 spf)
Метод сжатия : С потерями
Размер потока : 115 Мбайт (8%)
Выравнивание : Разделение по промежуткам
Продолжительность промежутка : 40 мс. (1,00 видеокадр)
Время предзагрузки промежутка : 500 мс.
Аудио #2
Идентификатор : 2
Формат : AC-3
Формат/Информация : Audio Coding 3
Расширение режима : CM (complete main)
Параметр Endianness формата : Big
Идентификатор кодека : 2000
Продолжительность : 1 ч. 23 м.
Вид битрейта : Постоянный
Битрейт : 192 Кбит/сек
Каналы : 2 канала
Расположение каналов : Front: L R
Частота : 48,0 КГц
Частота кадров : 31,250 кадров/сек (1536 spf)
Метод сжатия : С потерями
Размер потока : 115 Мбайт (8%)
Выравнивание : Разделение по промежуткам
Продолжительность промежутка : 40 мс. (1,00 видеокадр)
Время предзагрузки промежутка : 500 мс.

Скриншот c названием фильма

Скриншоты

[cybertorrent.ru].t18203.torrent 
Торрент: Зарегистрирован [ 2018-02-25 16:55 ] · FC9DB7FD5FFB6C357EAB2E1995F5ADB8CF0BAB41

Скачать .torrent

Скачать

15 KB

Статус: проверено
Скачан: 0 раз
Размер: 1,42 GB
terms.php
[Профиль] [ЛС]
Показать сообщения:    
Ответить на тему

Текущее время: 22-Фев 02:39

Часовой пояс: UTC + 3



Вы не можете начинать темы
Вы не можете отвечать на сообщения
Вы не можете редактировать свои сообщения
Вы не можете удалять свои сообщения
Вы не можете голосовать в опросах
Вы не можете прикреплять файлы к сообщениям
Вы можете скачивать файлы