Статистика раздачи
Размер:  5,35 GB   |    Зарегистрирован:  7 месяцев 7 дней   |    Скачан:  0 раз

Полного источника не было: Никогда

Личеров:  1  [  0 KB/s  ]  
 
   
 
 

krek ®

Пол:
Не указан
Стаж:
7 месяцев 8 дней
Сообщений:
105

Мобильный воин ГАНДАМ 00 (первый сезон) / Mobile Suit Gundam 00- Год выпуска: 2007-2008 гг.
Страна: Япония
Жанр: приключения, фантастика, меха, драма
Тип: TV
Продолжительность: 25 эп., 24 мин.
Режиссер: Мидзусима Сэйдзи
Студия: -Описание: 2307 год. Запасы ископаемого топлива на Земле давно истощились. Солнечные коллекторы остались единственным надежным источником энергии для человечества. Пятидесятилетнее строительство завершились созданием трех Орбитальных Лифтов, на вершинах которых, на высоте более 50000 километров, были установлены гигантские Солнечные Энергосистемы. Ради постройки этих гигантских, почти вечных источников энергии нации мира объединились в три независимых политико-экономических образования. Всемирный Экономический Союз, или просто "Союз", лидером которого стали США. Лига Реформирования Человечества, сплотившаяся вокруг Китая, России и Индии. И наконец, Расширенный Европейский Союз, РЕС. Но даже имея почти неисчерпаемый источник энергии, каждая группа наций все же продолжила свои опасные и бессмысленные войны - ради собственного процветания и гордости. Но есть в этом мире и те, кто решил изменить такое положение вещей: "Небожители", частная вооруженная организация, обладающая мобильными доспехами "Гандам". Ради уничтожения в мире всех конфликтов они начали собственную войну, цель которой куда выше национальных, экономических или религиозных.-Качество: BDRip (Рип с BDRemux-а)
Автор рипа: wealldiedudes
Тип релиза: Без хардсаба
Формат видео: mkv
Совместимость с бытовыми плеерами: Нет
Видео: x264, 854x480, (16/9), ~1 149 кбит/с, 23.976 fps, 8 bit
Аудио: Vorbis, 192 кбит/с, 48 KHz, stereo Язык Японский (в составе контейнера)
Аудио 2: AAC, 128 кбит/с, 48 KHz, stereo Язык Русский (внешними файлами) ; Озвучка: Azazel & n_o_i_r - Двухголосный войсовер (м+ж)
Субтитры: ASS, внешние Язык субтитров русский
  • Тайм-код/Оформление: Korg- | Переводчик: NewYork | Переводчик/Редактор/Перевод песен: Исаги [Anime Umi]

    Подробные тех. данные

    General
    Unique ID : 155269002303714195172641368489394897777 (0x74CFB8DB5C73C5EDC9EFE28B61930371)
    Complete name : D:\uploads\Mobile Suit Gundam 00\Mobile Suit Gundam 00 - 01.mkv
    Format : Matroska
    Format version : Version 4 / Version 2
    File size : 233 MiB
    Duration : 23mn 49s
    Overall bit rate mode : Variable
    Overall bit rate : 1 368 Kbps
    Writing application : Lavf55.19.104
    Writing library : Lavf55.19.104
    Video
    ID : 1
    Format : AVC
    Format/Info : Advanced Video Codec
    Format profile : High@L4.0
    Format settings, CABAC : Yes
    Format settings, ReFrames : 16 frames
    Codec ID : V_MPEG4/ISO/AVC
    Duration : 23mn 49s
    Bit rate : 1 149 Kbps
    Width : 854 pixels
    Height : 480 pixels
    Display aspect ratio : 16:9
    Frame rate mode : Constant
    Frame rate : 23.976 fps
    Color space : YUV
    Chroma subsampling : 4:2:0
    Bit depth : 8 bits
    Scan type : Progressive
    Bits/(Pixel*Frame) : 0.117
    Stream size : 196 MiB (84%)
    Writing library : x264 core 138 r2363 c628e3b
    Encoding settings : cabac=1 / ref=16 / deblock=1:1:1 / analyse=0x3:0x133 / me=umh / subme=9 / psy=1 / psy_rd=0.40:0.00 / mixed_ref=1 / me_range=24 / chroma_me=1 / trellis=2 / 8x8dct=1 / cqm=0 / deadzone=21,11 / fast_pskip=1 / chroma_qp_offset=-2 / threads=12 / lookahead_threads=3 / sliced_threads=0 / nr=0 / decimate=0 / interlaced=0 / bluray_compat=0 / constrained_intra=0 / bframes=16 / b_pyramid=2 / b_adapt=2 / b_bias=0 / direct=3 / weightb=1 / open_gop=0 / weightp=2 / keyint=250 / keyint_min=23 / scenecut=40 / intra_refresh=0 / rc_lookahead=60 / rc=crf / mbtree=1 / crf=17.5 / qcomp=0.60 / qpmin=0 / qpmax=69 / qpstep=4 / ip_ratio=1.40 / aq=1:0.60
    Default : Yes
    Forced : No
    Audio
    ID : 2
    Format : Vorbis
    Format settings, Floor : 1
    Codec ID : A_VORBIS
    Duration : 23mn 49s
    Bit rate mode : Variable
    Bit rate : 192 Kbps
    Channel count : 2 channels
    Sampling rate : 48.0 KHz
    Compression mode : Lossy
    Delay relative to video : 1mn 5s
    Stream size : 32.7 MiB (14%)
    Writing library : libVorbis (Turpakäräjiin) (20140122 (Turpakäräjiin))
    Language : Japanese
    Default : Yes
    Forced : No
    Writing application : Lavc55.39.101

    Список эпизодов

    01. Celestial Being
    02. Gundam Meister
    03. The Changing World
    04. Foreign Negotiations
    05. Breakaway Limit Zone
    06. Seven Swords
    07. Unrepayable Spirit
    08. Indiscriminant Retaliation
    09. A Powerful Nation's Dignity
    10. Operation Gundam Capture
    11. Allelujah
    12. Toward a Doctrine's Result
    13. The Return of a Saint
    14. Dawn of Determination
    15. Broken Wings
    16. Trinity
    17. Thrones Assault
    18. Malicious Target
    19. Bonds
    20. Revolution's Blade
    21. The Path of Destruction
    22. Transam
    23. The World Stopped
    24. Endless Poem
    25. Setsuna

    Скриншоты

    [cybertorrent.ru].t1855.torrent 
    Торрент: Зарегистрирован [ 2018-02-16 08:44 ] · ADD9EA6EBF0A559D2915D2DBA8903758D5070A83

    Скачать .torrent

    Скачать

    434 KB

    Статус: проверено
    Скачан: 0 раз
    Размер: 5,35 GB
  • Профиль [ЛС]
    Показать сообщения:    

    Текущее время: 24-Сен 07:11

    Часовой пояс: UTC ± 0



    Вы не можете начинать темы
    Вы не можете отвечать на сообщения
    Вы не можете редактировать свои сообщения
    Вы не можете удалять свои сообщения
    Вы не можете голосовать в опросах
    Вы не можете прикреплять файлы к сообщениям
    Вы можете скачивать файлы
    Torrents24.ru открытый BitTorrent Torrents24.pl открытый BitTorrent CyberTorrent.ru открытый BitTorrent BtList.ru рейтинг BitTorrent трекеров Яндекс.Метрика