Статистика раздачи
Размер:  1,46 GB   |    Зарегистрирован:  6 месяцев 11 дней   |    Скачан:  0 раз

Полного источника не было: Никогда

   
 

Гость ®

Пол:
Не указан

Белые рыцари / Les chevaliers blancs
Страна: Бельгия, Франция
Жанр: драма
Год выпуска: 2015
Продолжительность: 01:52:07
Перевод: Профессиональный (многоголосый закадровый) 1 канал
Субтитры: нет
Оригинальная аудиодорожка: французский
Режиссер: Жоаким Лафосс / Joachim Lafosse
В ролях: Венсан Линдон
Луиз Бургуан
Валери Донзелли
Реда Катеб
Стефан Биссо
Рафаэл Лубанс
Жан-Анри Компере
Филипп Реббо
Янник Ренье
Татьяна Рожо
Описание: «Движение за детей» — команда французских спасателей, которые прилетели в Африку с благородной миссией. Им предстоит отыскать среди всего этого ада, жары и военных конфликтов детей младше пяти лет, отвезти их в местный лагерь и там заниматься с ними вплоть до их совершеннолетия — кормить, лечить, учить, воспитывать. Во всяком случае, такова официальная цель прилёта французов на Чёрный континент. В действительности все несколько иначе: нашлись состоятельные европейцы, готовые усыновить детишек из Африки и уже заплатившие за них немалые деньги.
Сэмпл: http://multi-up.com/1228878
Качество видео: HDRip
Формат видео: AVI
Видео: MPEG4, XviD, 720x304 (2.35:1), 23.976 fps, 1 269 Kbps (0.242 bit/pixel)
Аудио: AC-3, 48.0 KHz, 2 ch, 192 Kbps, CBR - русский
Аудио 2: AC-3, 48.0 KHz, 6 ch, 384 Kbps, CBR - французский

MediaInfo

Общее
Полное имя : F:\Белые рыцари.avi
Формат : AVI
Формат/Информация : Audio Video Interleave
Размер файла : 1,46 Гбайт
Продолжительность : 1 ч. 52 м.
Общий поток : 1859 Кбит/сек
Название фильма : Белые рыцари / Les chevaliers blancs (2015)
Программа кодирования : VirtualDubMod 1.5.10.2 (build 2540/release)
Библиотека кодирования : VirtualDubMod build 2540/release
Авторское право : miha2154
Видео
Идентификатор : 0
Формат : MPEG-4 Visual
Профиль формата : Advanced Simple@L5
Настройки формата : BVOP1 / Custom Matrix
Параметр BVOP формата : 1
Параметр QPel формата : Нет
Параметр GMC формата : Без точки перехода
Параметр матрицы формата : Выборочная
Идентификатор кодека : XVID
Идентификатор кодека/Подсказка : XviD
Продолжительность : 1 ч. 52 м.
Битрейт : 1269 Кбит/сек
Ширина : 720 пикселей
Высота : 304 пикселя
Соотношение сторон : 2,35:1
Частота кадров : 23,976 (24000/1001) кадра/сек
Цветовое пространство : YUV
Субдискретизация насыщенности : 4:2:0
Битовая глубина : 8 бит
Тип развёртки : Прогрессивная
Метод сжатия : С потерями
Бит/(Пиксели*Кадры) : 0.242
Размер потока : 1018 Мбайт (68%)
Библиотека кодирования : XviD 65
Аудио #1
Идентификатор : 1
Формат : AC-3
Формат/Информация : Audio Coding 3
Коммерческое название : Dolby Digital
Идентификатор кодека : 2000
Продолжительность : 1 ч. 52 м.
Вид битрейта : Постоянный
Битрейт : 192 Кбит/сек
Каналы : 2 канала
Channel layout : L R
Частота : 48,0 КГц
Частота кадров : 31,250 кадров/сек (1536 SPF)
Битовая глубина : 16 бит
Метод сжатия : С потерями
Размер потока : 154 Мбайт (10%)
Выравнивание : Разделение по промежуткам
Продолжительность промежутка : 42 мс. (1,00 видеокадр)
Время предзагрузки промежутка : 500 мс.
Заголовок : Профессиональный (многоголосый, закадровый) 1 канал
ServiceKind/String : Complete Main
Аудио #2
Идентификатор : 2
Формат : AC-3
Формат/Информация : Audio Coding 3
Коммерческое название : Dolby Digital
Идентификатор кодека : 2000
Продолжительность : 1 ч. 52 м.
Вид битрейта : Постоянный
Битрейт : 384 Кбит/сек
Каналы : 6 каналов
Channel layout : L R C LFE Ls Rs
Частота : 48,0 КГц
Частота кадров : 31,250 кадров/сек (1536 SPF)
Битовая глубина : 16 бит
Метод сжатия : С потерями
Размер потока : 308 Мбайт (21%)
Выравнивание : Разделение по промежуткам
Продолжительность промежутка : 42 мс. (1,00 видеокадр)
Время предзагрузки промежутка : 500 мс.
Заголовок : Французский
ServiceKind/String : Complete Main

Скриншот c названием фильма

Скриншоты


[cybertorrent.ru].t1861.torrent 
Торрент: Зарегистрирован [ 2019-04-08 17:20 ] · 6C33FC87BE0F90C901DDA665F8AC8AEE9C7AD0F4

Скачать .torrent

Скачать

15 KB

Статус: проверено
Скачан: 0 раз
Размер: 1,46 GB
terms.php
Показать сообщения:    

Текущее время: 20-Окт 06:21

Часовой пояс: UTC ± 0



Вы не можете начинать темы
Вы не можете отвечать на сообщения
Вы не можете редактировать свои сообщения
Вы не можете удалять свои сообщения
Вы не можете голосовать в опросах
Вы не можете прикреплять файлы к сообщениям
Вы можете скачивать файлы