Статистика раздачи
Размер:  17,05 GB   |    Зарегистрирован:  7 месяцев 6 дней   |    Скачан:  0 раз

Полного источника не было: Никогда

Личеров:  1  [  0 KB/s  ]  
 
   
 
 

DR_KTO ®

Пол:
Не указан
Стаж:
7 месяцев 7 дней
Сообщений:
105

Мы идём играть! (Карусель, 96 вып.)
Дата/Год выпуска: 2010-2011
Страна: Россия
Жанр: Детская телепередача
Продолжительность: 96 х ~ 13 минут
Перевод: Не требуется
Русские субтитры: нет
Телеканал: Карусель
Описание: Трудно найти более озорную и весёлую девочку, чем главная героиня передачи. Стрекотуша и её верный друг Мишка-Тишка постоянно заняты поиском приключений и веселыми играми. Каждый раз для игры им требуется какой-то новый, интересный предмет, а чтобы найти его, нужно позвать на помощь доброго волшебника и мага Деда Секрета!
Стоит только ему во всех тонкостях описать необходимый им для игры предмет, как Дед Секрет тут же поможет им его отыскать. Маленькие зрители тоже могут присоединиться к поискам и вместе с нашими задорными героями разгадывать загадки, учиться быстро произносить веселые скороговорки, правильно описывать разные предметы, а также петь и плясать.
Благодаря этой программе, ваш малыш быстро выучит новые для него слова, пополнив свой словарный запас, будет правильно выговаривать слова, развивать логику и память, а также улучшать свою моторику благодаря новым танцевальным движениям. Детская программа “Мы идем играть” поможет вашему малышу провести время не только весело, но и с пользой для себя.
Доп. информация: Запись с канала "Карусель". Нумерация выпусков - с него же. В раздаче выпуски с номерами с 100 по 199 ( за исключением
выпусков: №№101, 126. 163, 185. При появлении этих выпусков (надеюсь) раздача будет дополняться.
Ссылка на предыдущие и альтернативные раздачи: http://cybertorrent.ru/tracker.php?nm=%D0%9C%D1%8B%20%D0%B8%D0%B4%D1%91%D0%BC...0%B0%D1%82%D1%8C
качество: SATRip
формат: AVI
Видео: 704x560 (4:3), 25 fps, XviD build 64 ~1791 kbps avg, 0.18 bit/pixel
Аудио: 48 kHz, MPEG Layer 3, 2 ch, ~128.00 kbps avg

Список выпусков/серий

100. Мыльные пузыри.avi
102. Резиновые сапоги.avi
103. Плащ-дождевик.avi
104. Формочки для песочницы.avi
105. Мороженое.avi
106. Чашка.avi
107. Перчатки.avi
108. Велосипед.avi
109. Карандаши.avi
110. Колокольчик.avi
111. Летучая мышь.avi
112. Радуга.avi
113. Телефон.avi
114. Тигр.avi
115. Настенные часы.avi
116. Грабли.avi
117. Гвоздика.avi
118. Бегемот.avi
119. Ватрушка.avi
120. Вертолёт.avi
121. Жираф.avi
122. Конструктор.avi
123. Конюшня.avi
124. Подушка.avi
125. Пчела.avi
127. Учебник математики.avi
128. Космический корабль.avi
129. Самосвал.avi
130. Строительный кран.avi
131. Цирковая лошадь.avi
132. Корова.avi
133. Сыр.avi
134. Вишня.avi
135. Удочка.avi
136. Верблюд.avi
137. Морская раковина.avi
138. Бантики.avi
139. Ананас.avi
140. Замок.avi
141. Линейка.avi
142. Петух.avi
143. Пирамидка.avi
144. Рак.avi
145. Солнечные очки.avi
146. Бинокль.avi
147. Орфографический словарь.avi
148. Чемодан.avi
149. Божья коровка.avi
150. Бусы.avi
151. Жёлудь.avi
152. Попугай.avi
153. Кленовый лист.avi
154. Ласточка.avi
155. Прыгалки.avi
156. Слива.avi
157. Слон.avi
158. Половник.avi
159. Воздушные шары.avi
160. Валенки.avi
161. Дудочка.avi
162. Кисточка.avi
164. Снегурочка.avi
165. Календарь (31 декабря).avi
166. Новогодние подарки.avi
167. Снегирь.avi
168. Снежинки.avi
169. Ваза.avi
170. Лимон.avi
171. Фотоаппарат.avi
172. Самовар.avi
173. Репка.avi
174. Лопатка.avi
175. Оловянный солдатик.avi
176. Подснежник.avi
177. Солнышко.avi
178. Хомяк.avi
179. Гармошка.avi
180. Коляска для куклы.avi
181. Муравей.avi
182. Одуванчик.avi
183. Колобок.avi
184. Лягушка-квакушка.avi
186. Сахарная вата.avi
187. Соловей.avi
188. Мозаика.avi
189. Барсук.avi
190. Василёк.avi
191. Клубок ниток.avi
192. Репчатый лук.avi
193. Мука.avi
194. Пальма.avi
195. Пеликан.avi
196. Свёкла.avi
197. Трактор.avi
198. Укроп.avi
199. Енот.avi
23.11.2015 добавлено 4 выпуска:
145. Солнечные очки.avi
155. Прыгалки.avi
168. Снежинки.avi
182. Одуванчик.avi
02.01.2016 добавлено 2 выпуска:
164. Снегурочка.avi
165. Календарь (31 декабря).avi

MediaInfo

Полное имя : E:\РАЗДАЧИ\Мы идём играть 100-199\100. Мыльные пузыри.avi
Формат : AVI
Формат/Информация : Audio Video Interleave
Размер файла : 185 Мбайт
Продолжительность : 13 м.
Общий поток : 1933 Кбит/сек
Программа кодирования : Lavf54.63.100
Видео
Идентификатор : 0
Формат : MPEG-4 Visual
Профиль формата : Simple@L3
Параметр BVOP формата : Нет
Параметр QPel формата : Нет
Параметр GMC формата : Без точки перехода
Параметр матрицы формата : Default (H.263)
Идентификатор кодека : XVID
Идентификатор кодека/Подсказка : XviD
Продолжительность : 13 м.
Битрейт : 1792 Кбит/сек
Ширина : 704 пикселя
Высота : 560 пикселей
Соотношение сторон : 4:3
Частота кадров : 25,000 кадров/сек
Цветовое пространство : YUV
Субдискретизация насыщенности : 4:2:0
Битовая глубина : 8 бит
Тип развёртки : Прогрессивная
Метод сжатия : С потерями
Бит/(Пиксели*Кадры) : 0.182
Размер потока : 172 Мбайт (93%)
Библиотека кодирования : XviD 64
Аудио
Идентификатор : 1
Формат : MPEG Audio
Версия формата : Version 1
Профиль формата : Layer 3
Идентификатор кодека : 55
Идентификатор кодека/Подсказка : MP3
Продолжительность : 13 м.
Вид битрейта : Постоянный
Битрейт : 128 Кбит/сек
Каналы : 2 канала
Частота : 48,0 КГц
Метод сжатия : С потерями
Размер потока : 12,3 Мбайт (7%)
Выравнивание : Соединение по промежуткам
Продолжительность промежутка : 24 мс. (0,60 видеокадр)
Время предзагрузки промежутка : 24 мс.

Скриншоты

[cybertorrent.ru].t1863.torrent 
Торрент: Зарегистрирован [ 2018-02-16 08:44 ] · 9778410A7EBA08E1FDFE2C448B06295939232B97

Скачать .torrent

Скачать

91 KB

Статус: проверено
Скачан: 0 раз
Размер: 17,05 GB
Профиль [ЛС]
Показать сообщения:    

Текущее время: 22-Сен 18:34

Часовой пояс: UTC ± 0



Вы не можете начинать темы
Вы не можете отвечать на сообщения
Вы не можете редактировать свои сообщения
Вы не можете удалять свои сообщения
Вы не можете голосовать в опросах
Вы не можете прикреплять файлы к сообщениям
Вы можете скачивать файлы
Torrents24.ru открытый BitTorrent Torrents24.pl открытый BitTorrent CyberTorrent.ru открытый BitTorrent BtList.ru рейтинг BitTorrent трекеров Яндекс.Метрика