Статистика раздачи
Размер:  2,04 GB   |    Зарегистрирован:  7 месяцев 5 дней   |    Скачан:  0 раз

Полного источника не было: Никогда

 
   
 
 

lom ®

Пол:
Не указан
Стаж:
7 месяцев 6 дней
Сообщений:
194

Наруто Фильм 2: Великое противостояние! Призрачные руины земных недр Naruto the Movie 2: Legend of the Stone of Gelel
-Год выпуска: 2005
Страна: Япония
Жанр: приключения, боевые искусства
Продолжительность: 97 мин.
Тип: Movie
Перевод: Субититры
Субтитры: русские
Тайминг и перевод: [dimon] | Редакция: Shadoy-Режиссёр: Кавасаки Хироцугу-Описание: Главное - идея осталась той же, что и на протяжении всей первой половины сериала: нам в очередной раз показали вариацию на тему маленьких талантливых сирот, попавших под дурное влияние и в итоге спасённых выстраданными Наруто жизненными принципами. Одиночество и величайшая важность близких, дорогих людей, сила, дарованная, дабы защитить их - красная нить, пронизывающая весь сериал, опоясала второй мувик и вписала его тем самым в общую картину.
А вообще речь идёт о неизвестных завоевателях из-за моря, вторгнувшихся в Страну Ветра в поисках таинственного Камня Гелеля. А Наруто и компании как всегда очень подфартило оказаться в самом эпицентре событий, причём без поддержки со стороны деревни.-Качество: BDRip 720p [SOFCJ-Raws]
Скачать: Cэмпл
Формат видео: MKV
Видео кодек: H.264
Аудио кодек: AC3
Видео: MPEG4 Video (H264) 1280x688 23.976fps 10bit 2508 Kbps
Аудио: Dolby AC3 48000Hz 6ch 448 Kbps
Субтитры: Русские .ass (отдельным файлом)

Скриншоты

MediaInfo

Format : Matroska
Format version : Version 4 / Version 2
File size : 2.04 GiB
Duration : 1h 36mn
Overall bit rate : 3 016 Kbps
Encoded date : UTC 2010-02-22 21:41:31
Writing application : mkvmerge v5.9.0 ('On The Loose') built on Dec 9 2012 15:37:01
Writing library : libebml v1.3.0 + libmatroska v1.4.0
Video
ID : 1
Format : AVC
Format/Info : Advanced Video Codec
Format profile : High 10@L4.1
Format settings, CABAC : Yes
Format settings, ReFrames : 4 frames
Codec ID : V_MPEG4/ISO/AVC
Duration : 1h 36mn
Bit rate : 2 508 Kbps
Width : 1 280 pixels
Height : 688 pixels
Display aspect ratio : 1.85:1
Frame rate mode : Constant
Frame rate : 23.976 fps
Color space : YUV
Chroma subsampling : 4:2:0
Bit depth : 10 bits
Scan type : Progressive
Bits/(Pixel*Frame) : 0.119
Stream size : 1.69 GiB (83%)
Writing library : x264 core 142 r2409+41 9f37d41 tMod [10-bit@all X86_64]
Encoding settings : cabac=1 / ref=4 / deblock=1:-2:-2 / analyse=0x3:0x133 / me=umh / subme=9 / psy=1 / fade_compensate=0.00 / psy_rd=0.70:0.00 / mixed_ref=1 / me_range=32 / chroma_me=1 / trellis=2 / 8x8dct=1 / cqm=0 / deadzone=21,11 / fast_pskip=1 / chroma_qp_offset=-2 / threads=12 / lookahead_threads=2 / sliced_threads=0 / nr=0 / decimate=0 / interlaced=0 / bluray_compat=0 / constrained_intra=0 / fgo=0 / bframes=8 / b_pyramid=2 / b_adapt=2 / b_bias=0 / direct=3 / weightb=1 / open_gop=0 / weightp=2 / keyint=250 / keyint_min=23 / scenecut=40 / intra_refresh=0 / rc=crf / mbtree=0 / crf=17.0000 / qcomp=0.80 / qpmin=10:10:10 / qpmax=38:38:38 / qpstep=4 / ip_ratio=1.40 / pb_ratio=1.30 / aq=1:1.00 / aq-sensitivity=10.00 / aq-factor=1.00:1.00:1.00 / aq2=0 / aq3=0
Default : Yes
Forced : No
Color primaries : BT.709
Transfer characteristics : BT.709
Matrix coefficients : BT.709
Audio
ID : 2
Format : AC-3
Format/Info : Audio Coding 3
Mode extension : CM (complete main)
Format settings, Endianness : Big
Codec ID : A_AC3
Duration : 1h 36mn
Bit rate mode : Constant
Bit rate : 448 Kbps
Channel(s) : 6 channels
Channel positions : Front: L C R, Side: L R, LFE
Sampling rate : 48.0 KHz
Bit depth : 16 bits
Compression mode : Lossy
Stream size : 310 MiB (15%)
Default : Yes
Forced : No

Раздачи SOFCJ по вселенной "Наруто"

  • Наруто: Ураганные хроники · HDTVRip 720p · HDTVRip HWP
  • Фильмы ::
  • Защитить принцессу страны Снега · HDTVRip 720p · BDRip 720p · BDRip 1080p - после 100 эп.
  • Призрачные руины в недрах земли · HDTVRip 720p · BDRip 720p · BDRip 1080p - после 141 эп.
  • Бунт зверей на острове Месяца · HDTVRip 720p · BDRip 720p · BDRip 1080p - после 147 эп.
  • фильм первый · BDRip 1080p · BDRemux 1080i - после 32 эп.
  • Узы · BDRip 1080p · BDRemux 1080p - после 71 эп.
  • Наследники Воли Огня · BDRemux 1080p - после 120 эп.
  • Затерянная башня · DVDRip · HDTVRip 720p · BDRip 720p · BDRip 1080p · BDRemux 1080p - после 171 эп.
  • Кровавая тюрьма · DVDRip · HDTVRip 720p · BDRip 720p · BDRip 1080p · BDRemux 1080i - после 222 эп.
  • Путь ниндзя · BDRip 720p · BDRip 1080p · BDRemux 1080p - после 271 эп. | Пролог 311 эп.
  • 2 0 1 4 · релиз на DVD и Blu-ray в 2015 г.
  • ОВА ::
  • Поиски четырёхлистного алого клевера - после 19 эп.
  • Отчаянная схватка в деревне Скрытого Водопада: я герой! · DVDRip - после 53 эп.
  • Большой спортивный фестиваль Конохи · HDTVRip 720p · BDRip 720p · BDRip 1080p - доп. к 1-ому фильму
  • Наконец-то схватка! Джонины против генинов!! Большой бойцовский турнир!! · DVDRip - после 100 эп.
  • Пересечение дорог - после 19 эп., но лучше см. после 36 эп., а вот по окончанию титров - после половины 142 эп.
  • Джин и три желания!! · BDRip 720p · BDRip 1080p · BDRemux 1080p - доп. к 7-ому фильму / после 100 эп.
  • Наруто x UT - музыкально видео · DVDRip · DVD5 - после 253 эп.
  • Пылающий экзамен на чунина! Наруто против Конохамару!! · BDRip 720p · BDRemux 1080i - доп. к 8-ому фильму
  • Серия анимационных роликов из игры "Ultimate Ninja Storm Generations"
  • Братья Учиха, Мангекьё Шаринган, курочки и глазунья!
  • Серия анимационных роликов из игры "Ultimate Ninja Storm Revolution"Прим.: ТВ-1| ТВ-2

Раздачи SOFCJ по вселенной "Ван-Пис"

  • Ван-Пис
  • Фильмы ::
  • The Great Gold Pirate - после 18 эп.
  • Clockwork Island Adventure - после 45 эп.
  • Chopper’s Kingdom on the Island of Strange Animals - после 95 эп.
  • Dead End Adventure · BDRemux 1080p - после 146 эп.
  • The Cursed Holy Sword · BDRemux 1080p - после 183 эп.
  • Baron Omatsuri and the Secret Island · BDRip 720p · BDRemux 1080p - после 224 эп.
  • Giant Mecha Soldier of Karakuri Castle · BDRip 720p · BDRemux 1080p - после 268 эп.
  • The Desert Princess and the Pirates: Adventures in Alabasta · BDRip 1080p · BDRemux 1080p - компиляция 93-130 эп.
  • Episode of Chopper Plus: Bloom in the Winter, Miracle Cherry Blossom · BDRip 720p · BDRip 1080p · BDRemux 1080p - компиляция 78-92 эп.
  • Strong World · BDRemux 1080p - после 429 эп.
  • Film Z · BDRemux 1080p - после 578 эп.
  • Спешлы ::
  • Episode of Nami · BDRip 1080p - компиляция 31-45 эп.
  • Episode of Luffy: Hand Island Adventure · HDTVRip 720p · BDRip 720p · BDRip 1080p · BDRemux 1080i - после 578 эп.
[cybertorrent.ru].t1870.torrent 
Торрент: Зарегистрирован [ 2018-02-16 08:44 ] · D16538978EC584E61592A07AC9F03AEADEE2BCCD

Скачать .torrent

Скачать

11 KB

Статус: проверено
Скачан: 0 раз
Размер: 2,04 GB
Профиль [ЛС]
Показать сообщения:    

Текущее время: 21-Сен 12:12

Часовой пояс: UTC ± 0



Вы не можете начинать темы
Вы не можете отвечать на сообщения
Вы не можете редактировать свои сообщения
Вы не можете удалять свои сообщения
Вы не можете голосовать в опросах
Вы не можете прикреплять файлы к сообщениям
Вы можете скачивать файлы
Torrents24.ru открытый BitTorrent Torrents24.pl открытый BitTorrent CyberTorrent.ru открытый BitTorrent BtList.ru рейтинг BitTorrent трекеров Яндекс.Метрика