Статистика раздачи
Размер:  4,41 GB   |    Зарегистрирован:  6 месяцев 12 дней   |    Скачан:  0 раз

Полного источника не было: Никогда

   
 

Гость ®

Пол:
Не указан

Зорге
Год выпуска: 2019
Производство: Star Media, Shanghai Film Group
Жанр: биография, драма
Продолжительность: ~00:49:00 серия
Субтитры: нет
Режиссёр: Сергей Гинзбург
В ролях: Александр Домогаров, Виктория Исакова, Сергей Гинзбург, Андрей Леонов, Юлия Ауг, Анатолий Дзиваев, Сергей Багиров, Василий Мищенко, Андрей Руденский, Кирилл Кузнецов, Анна Бачалова, Александр Никольский , Евгения Бордзиловская, Сергей Бызгу, Игорь Фурманюк, Роман Индык, Анатолий Котенёв, Александр Орав, Павел Капитонов, Александр Зуев, Иван Шибанов, Татьяна Космачёва, Анастасия Цой, Гэ Ян, Дин Фан, Джунсуке Киносита, Шион Накамару, Осаму Ямамото, Мария Ахметзянова, Юрий Лахин, Николай Юшкевич, Роман Хан
Описание: Весна 1941 года. Советский резидент в Японии Рихард Зорге (агентурный псевдоним Рамзай) работает в Токио под видом немецкого журналиста. От посла Германии в Японии Эйгена Отта он узнает, что Гитлер принял решение напасть на СССР. Рихард немедленно сообщает о грозящей опасности в ставку, но точного времени вторжения назвать не может… Москва считает информацию не внушающей доверия, поскольку Зорге находится в опале. Рихард пренебрегает всеми правилами конспирации и шлет радиограммы одну за одной. В итоге его засекает секретная служба Японии, возглавляемая полковником Осаки, который давно охотится на советского резидента.

Реклама: Нет.
Кинопоиск
Все раздачи сериала
Sample
Качество: HDTV 1080i - olegka7373 (GeneralFilm)
Формат: TS
Видео кодек: AVC
Аудио кодек: AC3, MP2
Видео: MPEG4 AVC Video, H264, 16:9, 1920x1080, 25 fps, ~5500 kbps, 0.107 bit/pixel
Аудио: AC3, 6 ch, 384 kbps, 16 bits, 48.0 KHz
Аудио 2: MP2, 2 ch, 192 kbps, 16 bits, 48.0 KHz

Внимание! Раздача ведётся путём добавления новых серий

Раздача ведётся путём добавления новых серий, при каждом добавлении создаётся новый торрент. Чтобы начать докачку новой серии, пользователям необходимо сделать следующее:
- Остановить скачивание.
- Удалить старый торрент у себя из клиента (старые серии удалять не надо).
- Скачать новый торрент и запустить его у себя в клиенте вместо старого, при этом указать клиенту путь в старую папку куда и должно происходить скачивание новых серий.
Ваш клиент при этом должен произвести хеширование (проверку) старой папки (если не производит сам - помогите ему сделать это), и будет докачивать только те серии которых у вас ещё нет. Старые серии при этом не удаляются, а продолжают раздаваться!
Если вы уже удалили старые серии, то предотвратить повторную закачку старых серий можно, отжав галочку в соответствующих местах при запуске нового торрента. По возможности, желательно не удалять старые серии как можно дольше, чтобы релизер не столько продолжал раздавать старые серии, а смог сконцентрироваться на новых.

MI

General
ID : 1 (0x1)
Complete name : D:\Zorge.HDTV(1080i).GeneralFilm\01.Zorge.HDTV(1080i).GeneralFilm.ts
Format : MPEG-TS
File size : 2.23 GiB
Duration : 49 min 41 s
Overall bit rate mode : Variable
Overall bit rate : 6 437 kb/s
Video
ID : 1904 (0x770)
Menu ID : 5640 (0x1608)
Format : AVC
Format/Info : Advanced Video Codec
Format profile : High@L4
Format settings : CABAC / 3 Ref Frames
Format settings, CABAC : Yes
Format settings, ReFrames : 3 frames
Codec ID : 27
Duration : 49 min 41 s
Bit rate : 5 537 kb/s
Width : 1 920 pixels
Height : 1 080 pixels
Display aspect ratio : 16:9
Frame rate : 25.000 FPS
Standard : Component
Color space : YUV
Chroma subsampling : 4:2:0
Bit depth : 8 bits
Scan type : Interlaced
Scan type, store method : Separated fields
Scan order : Top Field First
Bits/(Pixel*Frame) : 0.107
Stream size : 1.92 GiB (86%)
Color range : Limited
Color primaries : BT.709
Transfer characteristics : BT.709
Matrix coefficients : BT.709
Audio #1
ID : 2904 (0xB58)
Menu ID : 5640 (0x1608)
Format : AC-3
Format/Info : Audio Coding 3
Codec ID : 6
Duration : 49 min 41 s
Bit rate mode : Constant
Bit rate : 384 kb/s
Channel(s) : 6 channels
Channel positions : Front: L C R, Side: L R, LFE
Sampling rate : 48.0 kHz
Frame rate : 31.250 FPS (1536 SPF)
Bit depth : 16 bits
Compression mode : Lossy
Delay relative to video : -120 ms
Stream size : 136 MiB (6%)
Language : Russian
Service kind : Complete Main
Audio #2
ID : 2905 (0xB59)
Menu ID : 5640 (0x1608)
Format : MPEG Audio
Format version : Version 1
Format profile : Layer 2
Codec ID : 3
Duration : 49 min 41 s
Bit rate mode : Constant
Bit rate : 192 kb/s
Channel(s) : 2 channels
Sampling rate : 48.0 kHz
Frame rate : 41.667 FPS (1152 SPF)
Compression mode : Lossy
Delay relative to video : -120 ms
Stream size : 68.2 MiB (3%)
Language : Russian

Скриншоты


[cybertorrent.ru].t1874.torrent 
Торрент: Зарегистрирован [ 2019-04-09 15:46 ] · B361C9C6558BD6C96C9ECCB30AD4ABED0D847174

Скачать .torrent

Скачать

23 KB

Статус: проверено
Скачан: 0 раз
Размер: 4,41 GB
terms.php
Показать сообщения:    

Текущее время: 22-Окт 08:24

Часовой пояс: UTC ± 0



Вы не можете начинать темы
Вы не можете отвечать на сообщения
Вы не можете редактировать свои сообщения
Вы не можете удалять свои сообщения
Вы не можете голосовать в опросах
Вы не можете прикреплять файлы к сообщениям
Вы можете скачивать файлы