Статистика раздачи
Размер:  4,36 GB   |    Зарегистрирован:  9 месяцев 2 дня   |    Скачан:  0 раз

Полного источника не было: Никогда

 
   
 
 

android ®

Пол:
Не указан
Стаж:
9 месяцев 3 дня
Сообщений:
79

Черепашки мутанты ниндзя / Teenage Mutant Ninja Turtles
Страна: США
Жанр: фантастика, боевик
Продолжительность: 00:23:42
Год выпуска: 1993
Перевод: Профессиональный (дублированный) 2x2
Русские субтитры: нет
Режиссёр: Билл Хаттен / Bill Hutten, Тони Лав / Tony Love
Роли дублировали: Герман Коваленко, Вячеслав Богачёв, Елена Валюшкина, Александр Леньков
Описание: Обожаемая детьми во всем мире героическая четверка, полная неукротимой энергии, отправляется в мультприключения, расправляясь с негодяями, выслеживая злодеев и поглощая пиццу в безостановочном темпе.
Список серий:
01. Night of the Dark Turtle / Ночь чёрной черепахи
02. The Starchild / Звёздное дитя
03. The Legend of Koji / Легенда о Коджи
04. Convicts from Dimension X / Беглецы из измерения Икс
05. White Belt, Black Heart / Белый пояс и чёрное сердце
06. Night of the Rogues / Ночь негодяев
07. Attack of the Neutrinos / Нападение нейтринов
08. Escape from the Planet of the Turtleloids / Бегство с планеты черепах
09. Revenge of the Fly / Месть мухи
10. Atlantis Awakes / Пробуждение атлантиды
11. Dirk Savage: Mutant Hunter! / Дирк Сэведж охотник на мутантов
12. Invasion of the Krangazoids / Нашествие Кренгов
13. Combat Land / Боевые аттракционы
14. Shredder Triumphant / Триумф Шреддера
Доп. информация: За предоставление исходников видео спасибо soulstorm, за запись звука спасибо DARKAN.
Сэмпл: http://multi-up.com/969994
Ссылка на предыдущие и альтернативные раздачи: http://cybertorrent.ru/tracker.php?nm=%D1%81%D0%B5%D0%B7%D0%BE%D0%BD%207
Качество: DVDRip
Формат: AVI
Видео: 624x480 (1.30:1), 23.976 fps, XviD build 73 ~1492 kbps avg, 0.21 bit/pixel
Аудио 1: AC3 Dolby Digital, 2/0 (L,R) ch, ~192 kbps Rus
Аудио 2: AC3 Dolby Digital, 2/0 (L,R) ch, ~192 kbps Eng
Субтитры: отсутствуют

Подробные технические данные

General
Complete name : C:\TMNT Season 7\01. Night of the Dark Turtle.avi
Format : AVI
Format/Info : Audio Video Interleave
File size : 321 MiB
Duration : 23mn 42s
Overall bit rate : 1 891 Kbps
Writing application : VirtualDubMod 1.5.10.3 (build 2550/release)
Writing library : VirtualDubMod build 2550/release
Video
ID : 0
Format : MPEG-4 Visual
Format profile : Advanced Simple@L5
Format settings, BVOP : 1
Format settings, QPel : No
Format settings, GMC : No warppoints
Format settings, Matrix : Default (H.263)
Codec ID : XVID
Codec ID/Hint : XviD
Duration : 23mn 42s
Bit rate : 1 493 Kbps
Width : 624 pixels
Height : 480 pixels
Display aspect ratio : 4:3
Frame rate : 23.976 fps
Color space : YUV
Chroma subsampling : 4:2:0
Bit depth : 8 bits
Scan type : Progressive
Compression mode : Lossy
Bits/(Pixel*Frame) : 0.208
Stream size : 253 MiB (79%)
Writing library : XviD 73
Audio #1
ID : 1
Format : AC-3
Format/Info : Audio Coding 3
Mode extension : CM (complete main)
Format settings, Endianness : Big
Codec ID : 2000
Duration : 23mn 42s
Bit rate mode : Constant
Bit rate : 192 Kbps
Channel(s) : 2 channels
Channel positions : Front: L R
Sampling rate : 48.0 KHz
Bit depth : 16 bits
Compression mode : Lossy
Stream size : 32.5 MiB (10%)
Alignment : Split accross interleaves
Interleave, duration : 42 ms (1.00 video frame)
Interleave, preload duration : 500 ms
Audio #2
ID : 2
Format : AC-3
Format/Info : Audio Coding 3
Mode extension : CM (complete main)
Format settings, Endianness : Big
Codec ID : 2000
Duration : 23mn 42s
Bit rate mode : Constant
Bit rate : 192 Kbps
Channel(s) : 2 channels
Channel positions : Front: L R
Sampling rate : 48.0 KHz
Bit depth : 16 bits
Compression mode : Lossy
Stream size : 32.5 MiB (10%)
Alignment : Split accross interleaves
Interleave, duration : 42 ms (1.00 video frame)
Interleave, preload duration : 500 ms

Скриншоты

[cybertorrent.ru].t1876.torrent 
Торрент: Зарегистрирован [ 2018-02-16 08:44 ] · EF800419EE434AC41518AAF7CB523D46ACEB3B1A

Скачать .torrent

Скачать

12 KB

Статус: проверено
Скачан: 0 раз
Размер: 4,36 GB
Профиль [ЛС]
Показать сообщения:    

Текущее время: 18-Ноя 22:22

Часовой пояс: UTC ± 0



Вы не можете начинать темы
Вы не можете отвечать на сообщения
Вы не можете редактировать свои сообщения
Вы не можете удалять свои сообщения
Вы не можете голосовать в опросах
Вы не можете прикреплять файлы к сообщениям
Вы можете скачивать файлы
Torrents24.ru открытый BitTorrent Torrents24.pl открытый BitTorrent CyberTorrent.ru открытый BitTorrent BtList.ru рейтинг BitTorrent трекеров Яндекс.Метрика