Статистика раздачи
Размер:  1,15 GB   |    Зарегистрирован:  9 месяцев 5 дней   |    Скачан:  0 раз

Полного источника не было: Никогда

 
   
 
 

Gomer ®

Пол:
Не указан
Стаж:
9 месяцев 6 дней
Сообщений:
40

Гриффины / Family Guy
Страна: США
Жанр: Ситком, Чёрный Юмор, Буффонада, Комедия, Пародия
Продолжительность: 00:22:00
Год выпуска: 2013
Перевод: Любительский (многоголосый закадровый) Volume-6
Русские субтитры: Нет
Режиссёр: Сет Макфарлейн / Seth MacFarlane
Роли озвучивали: Сет Макфарлейн, Алекс Борштейн, Сет Грин, Мила Кунис, Майк Генри
Volume-6:Dmc, Dice, Angel Wings, Kogemyaka, Graceful
Работа над звуком: Nessili
Описание: "Гриффины" (Family Guy) - анимационное ТВ-Шоу, созданное Сетом МакФерлайном (Seth MacFarlane) для телеканала FOX. Как нетрудно догадаться, главными героями шоу является семейка Гриффинов: тупой, но полный сумашедших идей, составляющих львиную долю шуток сериала, отец семейства Питер; его любящя и терпеливая жена Лойс, всеми силами пытающаяся превратить Гриффинов в нормальную семью; их интеллектуально развитый не по годам, вынашивающий идею мирового господства младший сын Стьюи; дочь-ботаник, обречённая из-за этого на одиночество и непонимание как в школе так и дома, Мэг; и 13-ти летний отсталый в развитии лет на 10, сын Крис. Также полноценным членом семьи является пёс Брайн - склонный к меланхолии эстет, спокойно наблюдающий с бокалом вина в лапе над приключениями Питера и остальных членов семьи (и это при всём притом, что остальные собаки в сериале не являются очеловеченными)
Качество: WEBRip
Формат: MPEG-4
Видео: Advanced Video Codec(Main@L3.1) 1280x720 29,970 кадров/сек 3282 Кбит/сек
Аудио: MPEG Audio Layer 3 320 Кбит/сек 48,0 КГц 2 канала
Субтитры: Периодические, вшитые

Подробные технические данные

Общее
Полное имя : C:\My downloads\Гриффины vol6\Family.Guy.S12E19.HDTV.x264-2HD.mp4
Формат : MPEG-4
Профиль формата : Base Media
Идентификатор кодека : isom
Размер файла : 554 Мбайт
Продолжительность : 21 м.
Общий поток : 3549 Кбит/сек
Программа кодирования : Lavf54.63.104
Видео
Идентификатор : 1
Формат : AVC
Формат/Информация : Advanced Video Codec
Профиль формата : Main@L3.1
Параметр CABAC формата : Да
Параметр ReFrames формата : 1 кадр
Идентификатор кодека : avc1
Идентификатор кодека/Информация : Advanced Video Coding
Продолжительность : 21 м.
Битрейт : 3282 Кбит/сек
Ширина : 1280 пикселей
Высота : 720 пикселей
Соотношение сторон : 16:9
Режим частоты кадров : Постоянный
Частота кадров : 29,970 кадров/сек
Цветовое пространство : YUV
Субдискретизация насыщенности : 4:2:0
Битовая глубина : 8 бит
Тип развёртки : Прогрессивная
Бит/(Пиксели*Кадры) : 0.119
Размер потока : 503 Мбайт (91%)
Библиотека кодирования : x264 core 129
Настройки программы : cabac=1 / ref=1 / deblock=1:0:0 / analyse=0x1:0x131 / me=dia / subme=2 / psy=1 / psy_rd=1.00:0.00 / mixed_ref=0 / me_range=16 / chroma_me=1 / trellis=0 / 8x8dct=0 / cqm=0 / deadzone=21,11 / fast_pskip=1 / chroma_qp_offset=0 / threads=4 / lookahead_threads=1 / sliced_threads=0 / nr=0 / decimate=1 / interlaced=0 / bluray_compat=0 / constrained_intra=0 / bframes=0 / weightp=2 / keyint=250 / keyint_min=25 / scenecut=40 / intra_refresh=0 / rc_lookahead=40 / rc=abr / mbtree=1 / bitrate=3282 / ratetol=1.0 / qcomp=0.60 / qpmin=10 / qpmax=51 / qpstep=4 / ip_ratio=1.41 / aq=1:1.00
Аудио
Идентификатор : 2
Формат : MPEG Audio
Версия формата : Version 1
Профиль формата : Layer 3
Режим : Joint stereo
Идентификатор кодека : 6B
Продолжительность : 21 м.
Duration_FirstFrame : 48 мс.
Вид битрейта : Постоянный
Битрейт : 320 Кбит/сек
Каналы : 2 канала
Частота : 48,0 КГц
Метод сжатия : С потерями
Размер потока : 49,9 Мбайт (9%)
Библиотека кодирования : LAME3.99.5UUUUU8оT2

Скриншоты

Список серий

01. Finders Keepers / Искатели Cокровищ
02. Vestigial Peter / Рудиментарный Питер
03. Quagmire's Quagmire / Куагмиру Куагмир
04. A Fistful Of Meg / Пригоршня Для Мэг
05. Boopa-Dee Bappa-Dee / Бупа-Ди Баппа-Ди
06. Life Of Brian / Жизнь Брайана
07. Into Harmony's Way / В пути Гармонии
08. Christmas Guy / Рождественский парень
09. Peter Problems / Проблемы Питера
10. Grimm Job / Работа Гримм
11. Brians a Bad Father / Брайн плохой отец
12. Mom's the Word / Слово Мамы
13. 3 Acts of God / 3 Закона Божьих
14. Fresh Heir / Новый Наследник
15. Secondhand Spoke / Пассивный курильщик
16. Herpe, the Love Sore / Герпес, любовная рана
17. The Most Interesting Man in the World / Самый Интересный Человек в Мире
18. Baby Got Black / Ребенок стал темнокожим
19. Meg Stinks! / Мег воняет!
20. He's Bla-ack! / Черный Вернулся!

Внимание! Раздача ведётся путём добавления новых серий

Внимание! Раздача ведётся путём добавления новых серий; при каждом добавлении создаётся новый торрент. Чтобы начать докачку новой серии, пользователям необходимо сделать следующее:
Остановить скачивание.
Удалить старый торрент у себя из клиента (старые серии удалять не надо).
Скачать новый торрент и запустить его у себя в клиенте вместо старого, при этом указать клиенту путь в старую папку куда и должно происходить скачивание новых серий.
Ваш клиент при этом должен произвести хеширование (проверку) старой папки (если не производит сам - помогите ему сделать это), и будет докачивать только те серии которых у вас ещё нет. Старые серии при этом не удаляются, а продолжают раздаваться!
Eсли вы уже удалили старые серии, то предотвратить повторную закачку старых серий можно, отжав галочку в соответсвующих местах при запуске нового торрента. По возможности, желательно не удалять старые серии как можно дольше чтобы релизёр не столько продолжал раздавать старые серии, а смог сконцентрироваться на новых.
Все раздачи мультсериала
Добавлена 21я серия.
[cybertorrent.ru].t1879.torrent 
Торрент: Зарегистрирован [ 2018-02-16 08:44 ] · 1BF5FF9F4720DAC5BE6EF7B7386CFA2C83F77A8C

Скачать .torrent

Скачать

12 KB

Статус: проверено
Скачан: 0 раз
Размер: 1,15 GB
Профиль [ЛС]
Показать сообщения:    

Текущее время: 21-Ноя 14:30

Часовой пояс: UTC ± 0



Вы не можете начинать темы
Вы не можете отвечать на сообщения
Вы не можете редактировать свои сообщения
Вы не можете удалять свои сообщения
Вы не можете голосовать в опросах
Вы не можете прикреплять файлы к сообщениям
Вы можете скачивать файлы
Torrents24.ru открытый BitTorrent Torrents24.pl открытый BitTorrent CyberTorrent.ru открытый BitTorrent BtList.ru рейтинг BitTorrent трекеров Яндекс.Метрика