Статистика раздачи
Размер:  17,34 GB   |    Зарегистрирован:  7 месяцев 5 дней   |    Скачан:  0 раз

Полного источника не было: Никогда

 
   
 
 

0H0 ®

Пол:
Не указан
Стаж:
7 месяцев 6 дней
Сообщений:
156

Трансформеры: Боты-спасатели / Transformers: Rescue Bots
Страна: США, Канада
Жанр: мультфильм, боевик, приключения, семейный
Продолжительность: 00:22:00
Год выпуска: 2011
Перевод: Профессиональный (дублированный)
Русские субтитры: нет
Режиссёр: Фрэнк Мольери / Frank Molieri
Роли озвучивали: Лейси Чаберт, Элан Гарфиас, Морис ЛаМарш, Джейсон Мэрсден, Шеннон МакКэйн, Стивен Блум, Парвеш Шина, Д.С. Дуглас, Имари Уильямс, ЛеВар Бёртон
Описание: Боты-спасатели — это дружная команда автоботов, призванная помогать людям ...
Герои мультсериала — четверо автоботов, которые прибыли на Землю недавно, поэтому не знакомы с людскими правилами. Оптимус Прайм поручил им важную миссию — разузнать всё о людях, подружиться с ними и защищать их от разных земных бед и опасностей.
Чейз, Хитвейв, Блэйдс и Болдер работают на технически оснащенном острове, выдавая себя за обычные транспортные средства. Здесь автоботы объединяются с семьей специалистов быстрого реагирования, среди которых есть шеф полиции, пожарник, пилот вертолета и инженер. Их общая задача — поддерживать безопасность на острове, спасать его жителей во время стихийных бедствий и техногенных катастроф. Выполняя эту миссию, боты-спасатели научатся командной работе и станут настоящими героями.
Список серий:
1 серия. Family of Heroes
2 серия. Under Pressure
3 серия. Hotshots
4 серия. Flobsters on Parade
5 серия. The Alien Invasion of Griffin Rock
6 серия. Cody on Patrol
7 серия. Four Bots and a Baby
8 серия. Walk on the Wild Side
9 серия. Christmas in July
10 серия. Deep Trouble
11 серия. Return of the Dino-bot
12 серия. The Other Doctor
13 серия. The Reign of Morocco
14 серия. Small Blessings
15 серия. The Griffin Rock Triangle
16 серия. Rules and Regulations
17 серия. The Lost Bell
18 серия. Bumblebee to the Rescue
19 серия. You've Been Squilshed
20 серия. Countdown
21 серия. The Haunting of Griffin Rock
22 серия. Little White Lies
23 серия. Shake Up
24 серия. Rescue Boy
25 серия. It's a Bot Time
26 серия. Bot to the Future
Ссылка на предыдущие и альтернативные раздачи: http://cybertorrent.ru/tracker.php?nm=Transformers%3A%20Rescue%20Bots
Семпл: http://multi-up.com/972577
Качество: WEB-DL
Формат: MKV
Видео: h264, 1280*720, 23.976fps, 3500 kbps
Аудио: AC3, rus, 48000 Hz, 2ch, 192 kbps
Аудио 2: AC3, eng, 48000 Hz, 6ch, 384 kbps
Субтитры: английские

Подробные технические данные

General
Unique ID : 173305176065965694814625747156014826100 (0x82615CE12257D07A9947B05DAC318274)
Format : Matroska
Format version : Version 2
File size : 723 MiB
Duration : 22mn 3s
Overall bit rate : 4 582 Kbps
Encoded date : UTC 2014-05-08 20:19:55
Writing application : mkvmerge v6.8.0 ('Theme for Great Cities') 64bit built on Mar 2 2014 21:34:26
Writing library : libebml v1.3.0 + libmatroska v1.4.1
Video
ID : 1
Format : AVC
Format/Info : Advanced Video Codec
Format profile : High@L3.1
Format settings, CABAC : No
Format settings, ReFrames : 2 frames
Codec ID : V_MPEG4/ISO/AVC
Duration : 22mn 3s
Bit rate : 3 915 Kbps
Width : 1 280 pixels
Height : 720 pixels
Display aspect ratio : 16:9
Frame rate mode : Constant
Frame rate : 23.976 fps
Color space : YUV
Chroma subsampling : 4:2:0
Bit depth : 8 bits
Scan type : Progressive
Bits/(Pixel*Frame) : 0.177
Stream size : 618 MiB (85%)
Title : 720p
Language : English
Default : Yes
Forced : Yes
Color primaries : BT.709
Transfer characteristics : BT.709
Matrix coefficients : BT.709
Audio #1
ID : 2
Format : AC-3
Format/Info : Audio Coding 3
Mode extension : CM (complete main)
Format settings, Endianness : Big
Codec ID : A_AC3
Duration : 22mn 3s
Bit rate mode : Constant
Bit rate : 192 Kbps
Channel count : 2 channels
Channel positions : Front: L R
Sampling rate : 48.0 KHz
Bit depth : 16 bits
Compression mode : Lossy
Stream size : 30.3 MiB (4%)
Title : дубляж "Карусель"
Language : Russian
Default : Yes
Forced : No
Audio #2
ID : 3
Format : AC-3
Format/Info : Audio Coding 3
Mode extension : CM (complete main)
Format settings, Endianness : Big
Codec ID : A_AC3
Duration : 22mn 3s
Bit rate mode : Constant
Bit rate : 384 Kbps
Channel count : 6 channels
Channel positions : Front: L C R, Side: L R, LFE
Sampling rate : 48.0 KHz
Bit depth : 16 bits
Compression mode : Lossy
Stream size : 60.6 MiB (8%)
Title : Surround
Language : English
Default : No
Forced : No
Text
ID : 4
Format : UTF-8
Codec ID : S_TEXT/UTF8
Codec ID/Info : UTF-8 Plain Text
Title : CC
Language : English
Default : No
Forced : No

Скриншоты

[cybertorrent.ru].t1880.torrent 
Торрент: Зарегистрирован [ 2018-02-16 08:44 ] · 906084BDF8892E938893DEF3EB7C6CDE30C0E089

Скачать .torrent

Скачать

47 KB

Статус: проверено
Скачан: 0 раз
Размер: 17,34 GB
Профиль [ЛС]
Показать сообщения:    

Текущее время: 21-Сен 12:15

Часовой пояс: UTC ± 0



Вы не можете начинать темы
Вы не можете отвечать на сообщения
Вы не можете редактировать свои сообщения
Вы не можете удалять свои сообщения
Вы не можете голосовать в опросах
Вы не можете прикреплять файлы к сообщениям
Вы можете скачивать файлы
Torrents24.ru открытый BitTorrent Torrents24.pl открытый BitTorrent CyberTorrent.ru открытый BitTorrent BtList.ru рейтинг BitTorrent трекеров Яндекс.Метрика