BitTorrent клиенты



Герой Китту / В ловушке чести / Maaveeran Kittu (Сусиндиран / Suseenthiran) [2016, Индия, Боевик, драма, HDRip] MVO (SDI Media) + Sub Rus (песни)

Ответить на тему
 
Автор Сообщение

Alex ®

Пол: Не указан

Стаж: 1 год

Сообщений: 855

Создавать темы 06-Фев-2018 00:59

[Цитировать]

Герой Китту / В ловушке чести / Maaveeran Kittu
-Страна: Индия
Жанр: Боевик, драма
Год выпуска: 2016
Продолжительность: 02:03:12-Перевод: Профессиональный (многоголосый закадровый) - SDI Media
Субтитры: Есть (песни)--Режиссер: Сусиндиран / Suseenthiran-В ролях: Вишну Вишал, Партибан, Шри Дивья, Хариш Утаман, Сури и др.--Описание: 1987 год. В одной из тамильских деревушек живёт парень по имени Китту - отличник учёбы и надежда односельчан. Он с юности горел желанием служить народу и во всём слушался своего наставника Чиннарасу - борца за права бедняков. Китту молод и полон надежд, однако обострение кастовой вражды в один миг ставит под вопрос светлое будущее его родных и близких. Он отчаянно хочет помочь, но вскоре и сам оказывается под ударом. Нелёгкий выбор встаёт между его мечтами и судьбой целого селения... (с) Sima Kivi--IMDb | Кинопоиск--Качество видео: HDRip
Формат видео: AVI-Видео: 720x304 (2.37:1), 24.000 fps, XviD build 50 ~1549 kbps avg, 0.29 bit/pixel
Аудио: 48 kHz, MPEG Layer 3, 2 ch, ~128.00 kbps---Сэмпл / Sample--Релиз и Deewana
Перевод субтитров: Sima Kivi (спасибо!)
Запись с канала: василисса (спасибо!)
Рип, синхрон. звука: soso4eg-- --

Скриншот с названием

-

Скриншоты

-

MI

General
Complete name : C:\_ИНДИЯ\Geroy.Kittu.2016.P.HDRip.XviD.BwTorrents.Deepavali\Geroy.Kittu.2016.P.HDRip.XviD.BwTorrents.Deepavali.avi
Format : AVI
Format/Info : Audio Video Interleave
File size : 1.45 GiB
Duration : 2h 3mn
Overall bit rate : 1 687 Kbps
Writing application : VirtualDubMod 1.6.0.0 SURROUND (build 2560/release)
Video
ID : 0
Format : MPEG-4 Visual
Format profile : Advanced Simple@L5
Format settings, BVOP : 2
Format settings, QPel : No
Format settings, GMC : No warppoints
Format settings, Matrix : Default (H.263)
Codec ID : XVID
Codec ID/Hint : XviD
Duration : 2h 3mn
Bit rate : 1 549 Kbps
Width : 720 pixels
Height : 304 pixels
Display aspect ratio : 2.35:1
Frame rate : 24.000 fps
Color space : YUV
Chroma subsampling : 4:2:0
Bit depth : 8 bits
Scan type : Progressive
Compression mode : Lossy
Bits/(Pixel*Frame) : 0.295
Stream size : 1.33 GiB (92%)
Writing library : XviD 1.2.1 (UTC 2008-12-04)
Audio
ID : 1
Format : MPEG Audio
Format version : Version 1
Format profile : Layer 3
Mode : Joint stereo
Codec ID : 55
Codec ID/Hint : MP3
Duration : 2h 3mn
Bit rate mode : Constant
Bit rate : 128 Kbps
Channel(s) : 2 channels
Sampling rate : 48.0 KHz
Compression mode : Lossy
Stream size : 113 MiB (8%)
Alignment : Aligned on interleaves
Interleave, duration : 42 ms (1.00 video frame)
Interleave, preload duratio : 504 ms
-
[Профиль] [ЛС]
Показать сообщения:    
Ответить на тему

Текущее время: 20-Фев 00:11

Часовой пояс: UTC + 3



Вы не можете начинать темы
Вы не можете отвечать на сообщения
Вы не можете редактировать свои сообщения
Вы не можете удалять свои сообщения
Вы не можете голосовать в опросах
Вы не можете прикреплять файлы к сообщениям
Вы можете скачивать файлы