Статистика раздачи
Размер:  2,21 GB   |    Зарегистрирован:  6 месяцев 9 дней   |    Скачан:  0 раз
Сидов:  69  [  0 KB/s  ]   Личеров:  3  [  0 KB/s  ]  
   
 

Гость ®

Пол:
Не указан

Окончательный приговор
Год выпуска: 2019
Производство: Россия | Хит Фильм
Жанр: детектив
Продолжительность: 00:45:00
Субтитры: нет
Режиссёр: Дмитрий Аверин
В ролях: Татьяна Колганова, Илья Шакунов, Александр Кудренко, Елизавета Аистова, Константин Воробьёв, Артур Ваха, Екатерина Старателева
Описание: Лидия – судья. Каждый день она выносит приговоры, среди которых немало обвинительных. Лидия уверена, что судит справедливо, и ей не в чем себя упрекнуть. Но однажды ее дочь похищают. Похититель не хочет денег. Он требует, чтобы Лидия вспомнила человека, которого несправедливо осудила, и вернула дело на пересмотр. В противном случае ее дочь навсегда останется в заточении.
Реклама: Нет
Сэмпл: http://www.mediafire.com/file/6swoowd7od3jva6/03.+Окончательный+приговор.2019.WEB-DLRip.+F
Качество: WEBRip
Формат: AVI
Видео кодек: XviD
Аудио кодек: AC3
Видео: XviD; 1600 Кбит/сек; 720х400 (16:9); 25,000 кадров/сек; Бит/(Пиксели*Кадры): 0.222
Аудио: AC-3; 192 Кбит/сек; 2 канала; 48,0 КГц

MI

Общее
Полное имя : D:\закачки\Окончательный приговор.2019.WEB-DLRip. Files-x\01. Окончательный приговор.2019.WEB-DLRip. Files-x..avi
Формат : AVI
Формат/Информация : Audio Video Interleave
Размер файла : 562 Мбайт
Продолжительность : 43 м. 36 с.
Общий поток : 1802 Кбит/сек
Программа кодирования : VirtualDubMod 1.5.10.3 | www.virtualdub-fr.org || (build 2550/release)
Библиотека кодирования : VirtualDubMod build 2550/release
Видео
Идентификатор : 0
Формат : MPEG-4 Visual
Профиль формата : Advanced Simple@L5
Настройки формата : BVOP1 / Custom Matrix
Параметр BVOP формата : 1
Параметр QPel формата : Нет
Параметр GMC формата : Без точки перехода
Параметр матрицы формата : Выборочная
Идентификатор кодека : XVID
Идентификатор кодека/Подсказка : XviD
Продолжительность : 43 м. 36 с.
Битрейт : 1600 Кбит/сек
Ширина : 720 пикселей
Высота : 400 пикселей
Соотношение сторон : 16:9
Частота кадров : 25,000 кадров/сек
Цветовое пространство : YUV
Субдискретизация насыщенности : 4:2:0
Битовая глубина : 8 бит
Тип развёртки : Прогрессивная
Метод сжатия : С потерями
Бит/(Пиксели*Кадры) : 0.222
Размер потока : 499 Мбайт (89%)
Библиотека кодирования : XviD 73
Аудио
Идентификатор : 1
Формат : AC-3
Формат/Информация : Audio Coding 3
Идентификатор кодека : 2000
Продолжительность : 43 м. 36 с.
Вид битрейта : Постоянный
Битрейт : 192 Кбит/сек
Каналы : 2 канала
Расположение каналов : Front: L R
Частота : 48,0 КГц
Частота кадров : 31,250 кадров/сек (1536 SPF)
Битовая глубина : 16 бит
Метод сжатия : С потерями
Размер потока : 59,9 Мбайт (11%)
Выравнивание : Разделение по промежуткам
Продолжительность промежутка : 40 мс. (1,00 видеокадр)
Время предзагрузки промежутка : 500 мс.
ServiceKind/String : Complete Main

Скриншоты

Предыдущие и альтернативные раздачи
Релиз-группы
[cybertorrent.ru].t1883.torrent 
Торрент: Зарегистрирован [ 2019-04-09 15:46 ] · 33BA0D0984A9AFDB988EED9D550D72AFECDFB758

Скачать .torrent

Скачать

12 KB

Статус: проверено
Скачан: 0 раз
Размер: 2,21 GB
terms.php
Показать сообщения:    

Текущее время: 19-Окт 04:29

Часовой пояс: UTC ± 0



Вы не можете начинать темы
Вы не можете отвечать на сообщения
Вы не можете редактировать свои сообщения
Вы не можете удалять свои сообщения
Вы не можете голосовать в опросах
Вы не можете прикреплять файлы к сообщениям
Вы можете скачивать файлы