Статистика раздачи
Размер:  5,11 GB   |    Зарегистрирован:  7 месяцев 9 дней   |    Скачан:  0 раз

Полного источника не было: Никогда

Личеров:  1  [  0 KB/s  ]  
 
   
 
 

DR_KTO ®

Пол:
Не указан
Стаж:
7 месяцев 10 дней
Сообщений:
105

Мы идём играть! (Карусель, 29 вып.)
Дата/Год выпуска: 2011
Страна: Россия
Жанр: Детская телепередача
Продолжительность: 29 х ~ 13 минут
Перевод: Не требуется
Русские субтитры: нет
Телеканал: Карусель
Описание: Трудно найти более озорную и весёлую девочку, чем главная героиня передачи. Стрекотуша и её верный друг Мишка-Тишка постоянно заняты поиском приключений и веселыми играми. Каждый раз для игры им требуется какой-то новый, интересный предмет, а чтобы найти его, нужно позвать на помощь доброго волшебника и мага Деда Секрета!
Стоит только ему во всех тонкостях описать необходимый им для игры предмет, как Дед Секрет тут же поможет им его отыскать. Маленькие зрители тоже могут присоединиться к поискам и вместе с нашими задорными героями разгадывать загадки, учиться быстро произносить веселые скороговорки, правильно описывать разные предметы, а также петь и плясать.
Благодаря этой программе, ваш малыш быстро выучит новые для него слова, пополнив свой словарный запас, будет правильно выговаривать слова, развивать логику и память, а также улучшать свою моторику благодаря новым танцевальным движениям. Детская программа “Мы идем играть” поможет вашему малышу провести время не только весело, но и с пользой для себя.
Ссылка на предыдущие и альтернативные раздачи: http://cybertorrent.ru/tracker.php?nm=%D0%9C%D1%8B%20%D0%B8%D0%B4%D1%91%D0%BC...0%B0%D1%82%D1%8C
Доп. информация: Запись с канала "Карусель". Нумерация выпусков - с него же. В раздаче выпуски с номерами с 200 по 228 (за исключением
выпуска №218.
09.11.2015 добавлен выпуск 218. Скворечник.avi
качество: SATRip
формат: AVI
Видео: 704x560 (4:3), 25 fps, XviD build 64 ~1792 kbps avg, 0.18 bit/pixel
Аудио: 48 kHz, MPEG Layer 3, 2 ch, ~128.00 kbps avg

Список выпусков/серий

200. Каша.avi
201. Конверт.avi
202. Нотная тетрадь.avi
203. Парусник.avi
204. Указка.avi
205. Якорь.avi
206. Воробей.avi
207. Грейпфрут.avi
208. Книжка со сказками.avi
209. Букварь.avi
210. Кувшинка.avi
211. Ослик.avi
212. Улыбка.avi
213. Соломенная шляпка.avi
214. Шапка-невидимка.avi
215. Ящерица.avi
216. Кабачок.avi
217. Ведро.avi
218. Скворечник.avi
219. Веник.avi
220. Волк.avi
221. Динозавр.avi
222. Сундук.avi
223. Осьминог.avi
224. Щука.avi
225. Бочонок мёда.avi
226. Шашки.avi
227. Рысь.avi
228. Кубики.avi

MediaInfo

Полное имя : E:\РАЗДАЧИ\Мы идём играть 200-228\Мы идём играть 200-е\200. Каша.avi
Формат : AVI
Формат/Информация : Audio Video Interleave
Размер файла : 190 Мбайт
Продолжительность : 13 м.
Общий поток : 1934 Кбит/сек
Программа кодирования : Lavf54.63.100
Видео
Идентификатор : 0
Формат : MPEG-4 Visual
Профиль формата : Simple@L3
Параметр BVOP формата : Нет
Параметр QPel формата : Нет
Параметр GMC формата : Без точки перехода
Параметр матрицы формата : Default (H.263)
Идентификатор кодека : XVID
Идентификатор кодека/Подсказка : XviD
Продолжительность : 13 м.
Битрейт : 1793 Кбит/сек
Ширина : 704 пикселя
Высота : 560 пикселей
Соотношение сторон : 4:3
Частота кадров : 25,000 кадров/сек
Цветовое пространство : YUV
Субдискретизация насыщенности : 4:2:0
Битовая глубина : 8 бит
Тип развёртки : Прогрессивная
Метод сжатия : С потерями
Бит/(Пиксели*Кадры) : 0.182
Размер потока : 176 Мбайт (93%)
Библиотека кодирования : XviD 64
Аудио
Идентификатор : 1
Формат : MPEG Audio
Версия формата : Version 1
Профиль формата : Layer 3
Идентификатор кодека : 55
Идентификатор кодека/Подсказка : MP3
Продолжительность : 13 м.
Вид битрейта : Постоянный
Битрейт : 128 Кбит/сек
Каналы : 2 канала
Частота : 48,0 КГц
Метод сжатия : С потерями
Размер потока : 12,6 Мбайт (7%)
Выравнивание : Соединение по промежуткам
Продолжительность промежутка : 24 мс. (0,60 видеокадр)
Время предзагрузки промежутка : 24 мс.

Скриншоты

[cybertorrent.ru].t1889.torrent 
Торрент: Зарегистрирован [ 2018-02-16 08:44 ] · 3BB8B7F4D47C7A1E1FED61C0A94ABB83C5A97250

Скачать .torrent

Скачать

28 KB

Статус: проверено
Скачан: 0 раз
Размер: 5,11 GB
Профиль [ЛС]
Показать сообщения:    

Текущее время: 26-Сен 05:19

Часовой пояс: UTC ± 0



Вы не можете начинать темы
Вы не можете отвечать на сообщения
Вы не можете редактировать свои сообщения
Вы не можете удалять свои сообщения
Вы не можете голосовать в опросах
Вы не можете прикреплять файлы к сообщениям
Вы можете скачивать файлы
Torrents24.ru открытый BitTorrent Torrents24.pl открытый BitTorrent CyberTorrent.ru открытый BitTorrent BtList.ru рейтинг BitTorrent трекеров Яндекс.Метрика