Статистика раздачи
Размер:  1,46 GB   |    Зарегистрирован:  6 месяцев 9 дней   |    Скачан:  0 раз

Полного источника не было: Никогда

   
 

Гость ®

Пол:
Не указан

Добро пожаловать в Акапулько / Welcome to Acapulco
Страна: Болгария, Мексика, США
Жанр: боевик, триллер, комедия
Год выпуска: 2019
Продолжительность: 01:28:59-Перевод: Любительский (многоголосый закадровый) | HDRezka Studio
Субтитры: нет
Оригинальная аудиодорожка: нет-Режиссер: Гильермо Иван / Guillermo Iván-В ролях: Уильям Болдуин, Майкл Мэдсен, Брэдли Грегг, Ана Серрадилья, Майкл Кингсбэйкер, Анна Лаевская, Гильермо Иван, Зэк Роуз, Гильермо Гарсия, Мария Елена Эредия, Освальдо де Леон-Описание: У разработчика компьютерных игр Мэтта Бута есть один шанс спасти свою карьеру, представив свой самый крупный проект на церемонии вручения наград в американском Нью-Мексико. Но весело отметив встречу с приятелем в аэропорту, он оказывается в мексиканском городе Акапулько. После приземления Мэтт оказывается объектом охоты преступников, киллеров и федералов, ищущих таинственный пакет, который он якобы провез через таможню, но о котором ничего не знает. Объединившись с роковой красоткой и выпустив на волю своего «внутреннего экшен героя», он раскрывает заговор, который может потрясти все Соединенные Штаты, а возможно, и целый мир.-Качество видео: WEB-DLRip
Формат видео: AVI
Видео: 720x304 (2.37:1), 23.976 fps, XviD build 73 ~2140 kbps avg, 0.41 bit/pixel
Аудио: 48 kHz, AC3 Dolby Digital, 2/0 (L,R) ch, ~192 kbps-[box]Сэмпл[/box]-

MediaInfo

Код:Формат : AVI
Формат/Информация : Audio Video Interleave
Размер файла : 1,46 Гбайт
Продолжительность : 1 ч. 28 м.
Общий поток : 2342 Кбит/сек
Название фильма : Добро пожаловать в Акапулько_2019_WEB-DLRip
Программа кодирования : VirtualDubMod 1.5.10.3 | www.virtualdub-fr.org || (build 2550/release) VirtualDubMod build 2550/release
Авторское право : порошков
Видео
Идентификатор : 0
Формат : MPEG-4 Visual
Профиль формата : Advanced Simple@L5
Настройки формата : BVOP1 / Custom Matrix
Параметр BVOP формата : 1
Параметр QPel формата : Нет
Параметр GMC формата : Без точки перехода
Параметр матрицы формата : Выборочная
Идентификатор кодека : XVID
Идентификатор кодека/Подсказка : XviD
Продолжительность : 1 ч. 28 м.
Битрейт : 2141 Кбит/сек
Ширина : 720 пикселей
Высота : 304 пикселя
Соотношение сторон : 2,35:1
Частота кадров : 23,976 (24000/1001) кадра/сек
Цветовое пространство : YUV
Субдискретизация насыщенности : 4:2:0
Битовая глубина : 8 бит
Тип развёртки : Прогрессивная
Метод сжатия : С потерями
Бит/(Пиксели*Кадры) : 0.408
Размер потока : 1,33 Гбайт (91%)
Библиотека кодирования : XviD 73
Аудио
Идентификатор : 1
Формат : AC-3
Формат/Информация : Audio Coding 3
Коммерческое название : Dolby Digital
Идентификатор кодека : 2000
Продолжительность : 1 ч. 28 м.
Вид битрейта : Постоянный
Битрейт : 192 Кбит/сек
Каналы : 2 канала
Channel layout : L R
Частота : 48,0 КГц
Частота кадров : 31,250 кадров/сек (1536 SPF)
Битовая глубина : 16 бит
Метод сжатия : С потерями
Размер потока : 122 Мбайт (8%)
Выравнивание : Разделение по промежуткам
Продолжительность промежутка : 42 мс. (1,00 видеокадр)
Время предзагрузки промежутка : 500 мс.
Язык : Русский
ServiceKind/String : Complete Main

Скриншоты


[cybertorrent.ru].t1893.torrent 
Торрент: Зарегистрирован [ 2019-04-10 16:11 ] · C35C3302D881A4E3DDE27BEDFBEC502BA4DACE

Скачать .torrent

Скачать

15 KB

Статус: проверено
Скачан: 0 раз
Размер: 1,46 GB
terms.php
Показать сообщения:    

Текущее время: 20-Окт 11:23

Часовой пояс: UTC ± 0



Вы не можете начинать темы
Вы не можете отвечать на сообщения
Вы не можете редактировать свои сообщения
Вы не можете удалять свои сообщения
Вы не можете голосовать в опросах
Вы не можете прикреплять файлы к сообщениям
Вы можете скачивать файлы