Статистика раздачи
Нет
 
     
 
 

MAGNAT ®

Пол:
Мужской
Стаж:
1 год 2 месяца
Сообщений:
7952

Тёмное наследие / Inheritance
«Правду нельзя запереть на замок»
Страна: США
Жанр: Триллер, драма, детектив
Год выпуска: 2020
Продолжительность: 01:50:59-Перевод: Профессиональный (дублированный) | (iTunes)
Cубтитры: Русские
Оригинальная аудиодорожка: Нет-Режиссёр: Вон Стайн / Vaughn Stein
В ролях: Лили Коллинз, Саймон Пегг, Конни Нильсен, Чейс Кроуфорд, Марке Ричардсон II, Майкл Бич, Крис Гэнн, Хосе Херрера, Кристина ДеРоса, Харрисон Стоун
Описание: Богатый и влиятельный отец семейства внезапно умирает. Его жена и дочь начинают разбираться в оставленном им наследстве. Погружаясь в прошлое отца, девушка узнает о завещании, оставленном для нее одной. Однако она не подозревает, что скоро столкнется с правдой, которая станет угрозой для всей её семьи.-Тип релиза: WEB-DL 1080p
Контейнер: MKV-Видео: AVC/H.264, 1920x804, 4629 Kbps, 24.000 fps
Аудио: Русский | AC-3, 6 ch, 384 Kbps, 48.0 KHz
-

MediaInfo

Код:
General
Unique ID : 200785449144073709956667882408290806342 (0x970DDEF2AC09AD7B564F9F735577EA46)
Complete name : /Volumes/Promise 2/Inheritance.WEB-DL.1080p.mkv
Format : Matroska
Format version : Version 4
File size : 3.89 GiB
Duration : 1h 51mn
Overall bit rate : 5 015 Kbps
Movie name : Inheritance WEB-DL 1080p
Encoded date : UTC 2020-05-20 22:48:32
Writing application : mkvmerge v46.0.0 ('No Deeper Escape') 64-bit
Writing library : libebml v1.3.10 + libmatroska v1.5.2
Video
ID : 1
Format : AVC
Format/Info : Advanced Video Codec
Format profile : High@L4
Format settings : CABAC / 5 Ref Frames
Format settings, CABAC : Yes
Format settings, ReFrames : 5 frames
Codec ID : V_MPEG4/ISO/AVC
Duration : 1h 50mn
Bit rate : 4 629 Kbps
Width : 1 920 pixels
Height : 804 pixels
Display aspect ratio : 2.40:1
Frame rate mode : Constant
Frame rate : 24.000 fps
Color space : YUV
Chroma subsampling : 4:2:0
Bit depth : 8 bits
Scan type : Progressive
Bits/(Pixel*Frame) : 0.125
Stream size : 3.59 GiB (92%)
Language : English
Default : Yes
Forced : No
Color range : Limited
Color primaries : BT.709
Transfer characteristics : BT.709
Matrix coefficients : BT.709
Audio
ID : 2
Format : AC-3
Format/Info : Audio Coding 3
Commercial name : Dolby Digital
Codec ID : A_AC3
Duration : 1h 51mn
Bit rate mode : Constant
Bit rate : 384 Kbps
Channel(s) : 6 channels
Channel layout : L R C LFE Ls Rs
Sampling rate : 48.0 KHz
Frame rate : 31.250 fps (1536 SPF)
Compression mode : Lossy
Stream size : 305 MiB (8%)
Title : Russian Original
Language : Russian
Service kind : Complete Main
Default : Yes
Forced : No
Text
ID : 3
Format : UTF-8
Codec ID : S_TEXT/UTF8
Codec ID/Info : UTF-8 Plain Text
Duration : 1h 46mn
Bit rate : 85 bps
Count of elements : 1240
Stream size : 67.1 KiB (0%)
Title : Russian full
Language : Russian
Default : No
Forced : No
Menu
00:00:00.000 : en:Глава 1
00:04:04.125 : en:Глава 2
00:11:31.916 : en:Глава 3
00:19:44.832 : en:Глава 4
00:29:36.290 : en:Глава 5
00:42:51.081 : en:Глава 6
00:51:04.247 : en:Глава 7
00:59:14.288 : en:Глава 8
01:09:47.746 : en:Глава 9
01:16:19.204 : en:Глава 10
01:25:44.287 : en:Глава 11
01:31:30.828 : en:Глава 12

Скриншоты

Профиль [ЛС]
Показать сообщения:    

Текущее время: 06-Июн 20:57

Часовой пояс: UTC ± 0



Вы не можете начинать темы
Вы не можете отвечать на сообщения
Вы не можете редактировать свои сообщения
Вы не можете удалять свои сообщения
Вы не можете голосовать в опросах
Вы не можете прикреплять файлы к сообщениям
Вы не можете скачивать файлы