Статистика раздачи
Размер:  16,08 GB   |    Зарегистрирован:  14 дней   |    Скачан:  0 раз
DL-List: Нет

Полного источника не было: Никогда

 
     
 
 

MAGNAT ®

Пол:
Мужской
Стаж:
1 год 2 месяца
Сообщений:
7952

Берлинский синдром / Berlin Syndrome
Страна: Австралия, Германия
Студия: Aquarius Films, DDP Studios, Entertainment One
Жанр: триллер, драма, детектив
Год выпуска: 2017
Продолжительность: 01:55:57
Перевод 1: Профессиональный дублированный (Лицензия DVD9 R5 от "НД Плэй")
Перевод 2: Профессиональный (многоголосый закадровый) ("Эй Би Видео" по заказу Первого канала)
Перевод 3: Одноголосый закадровый (Андрей Важенин (BadBajo))
Субтитры: Русские (forced, R5, vadim_martin), английские (forced, full, SDH), голландские, немецкие, итальянские, португальские, испанские, чешские, датские, финские, греческие, иврит, хорватские, болгарские, норвежские, румынские, словацкие, шведские, турецкие, вьетнамские, китайские
Оригинальная аудиодорожка: Английский
Режиссер: Кейт Шортланд / Cate Shortland
В ролях: Тереза Палмер, Макс Римельт, Маттиас Хабих, Эмма Бадинг, Эльмира Бахрами, Кристоф Фрэнкен, Люси Арон, Нассим Ават, Малин Стеффен, Тусо Ликвейп, Морган Ферру, Клод Хайнрих, Витус Визер
Описание: Австралийка Клер, увлекающаяся историей архитектуры, приезжает в восточный Берлин. На улицах немецкой столицы она знакомится с обаятельным Энди — преподавателем английского языка в спортивной школе. Слово за слово — и вот уже девушка в квартире своего нового знакомого. Поддавшись обаянию Энди, Клер забывает обо всем на свете. Им хорошо вместе, но австралийка не знает главного — Энди не намерен ее отпускать. Он запирает девушку в квартире с пуленепробиваемыми стеклами и абсолютной звукоизоляцией. Выбраться оттуда невозможно, нечего и пытаться. Да и Энди из внимательного, нежного любовника неожиданно превращается в холодного тирана, способного жестоко наказать за любую провинность...
Качество видео: BDRip 1080p SbR
Формат видео: BDAV
Видео: MPEG-4, 1920x804 (2,40:1), 24 fps, 16190 kbps, 0.437 bit/pixel
Аудио 1: Русский AC3, 48000 Гц, 6ch, 448 kbps - DUB
Аудио 2: Русский AC3, 48000 Гц, 2ch, 192 kbps - MVO
Аудио 3: Русский DTS 5.1 / 48 kHz / 1509 kbps / 16-bit - VO
Аудио 4: Английский DTS 5.1 / 48 kHz / 1509 kbps / 16-bit
Формат субтитров: softsub (SRT)

MediaInfo

Notes:
* Applied F3kdb ConditionalFilter and zoned for some scenes visible banding
* Bitrate for dark scenes
* Dirty lines are fixed with the help of fillmargins, balanceBorders
x264log
x264 [info]: frame I:945 Avg QP:11.40 size:195750
x264 [info]: frame P:37078 Avg QP:13.38 size:131491
x264 [info]: frame B:128948 Avg QP:14.69 size: 69943
x264 [info]: consecutive B-frames: 2.6% 3.2% 12.2% 8.9% 13.9% 48.8% 5.4% 1.8% 3.1%
x264 [info]: encoded 166971 frames, 3.60 fps, 16189.93 kb/s
Общее
Уникальный идентификатор : 72285660496983033572137238597888876766 (0x3661B6392FB69EE0A00902B881B3A0DE)
Полное имя : Berlin.Syndrome.2017.BDRip.1080p.TeamHD.SbR-ylnian.mkv
Формат : Matroska
Версия формата : Version 4
Размер файла : 16,1 Гбайт
Продолжительность : 1 ч. 55 м.
Общий поток : 19,9 Мбит/сек
Название фильма : Berlin.Syndrome.2017.BDRip.1080p.TeamHD.SbR-ylnian
Дата кодирования : UTC 2020-05-10 09:12:34
Программа кодирования : mkvmerge v46.0.0 ('No Deeper Escape') 64-bit
Библиотека кодирования : libebml v1.3.10 + libmatroska v1.5.2
Обложка : Yes
Attachments : cover.jpg
Видео
Идентификатор : 1
Формат : AVC
Формат/Информация : Advanced Video Codec
Профиль формата : High@L4.1
Настройки формата : CABAC / 5 Ref Frames
Параметр CABAC формата : Да
Параметр RefFrames формата : 5 кадров
Идентификатор кодека : V_MPEG4/ISO/AVC
Продолжительность : 1 ч. 55 м.
Битрейт : 16,2 Мбит/сек
Ширина : 1 920 пикселей
Высота : 804 пикселя
Соотношение сторон : 2,40:1
Режим частоты кадров : Постоянный
Частота кадров : 24,000 кадра/сек
Цветовое пространство : YUV
Субдискретизация насыщенности : 4:2:0
Битовая глубина : 8 бит
Тип развёртки : Прогрессивная
Бит/(Пиксели*Кадры) : 0.437
Размер потока : 13,1 Гбайт (82%)
Заголовок : SbR
Библиотека кодирования : x264 core 152 r2851kMod ba24899
Настройки программы : cabac=1 / ref=5 / deblock=1:-3:-3 / analyse=0x3:0x133 / me=umh / subme=11 / psy=1 / fade_compensate=0.00 / psy_rd=1.00:0.00 / mixed_ref=1 / me_range=48 / chroma_me=1 / trellis=2 / 8x8dct=1 / cqm=0 / deadzone=21,11 / fast_pskip=1 / chroma_qp_offset=-2 / threads=6 / lookahead_threads=1 / sliced_threads=0 / nr=0 / decimate=1 / interlaced=0 / bluray_compat=0 / constrained_intra=0 / bframes=8 / b_pyramid=2 / b_adapt=2 / b_bias=0 / direct=3 / weightb=1 / open_gop=0 / weightp=2 / keyint=250 / keyint_min=24 / scenecut=40 / intra_refresh=0 / rc=2pass / mbtree=0 / bitrate=16200 / ratetol=1.0 / qcomp=0.65 / qpmin=0 / qpmax=69 / qpstep=4 / cplxblur=20.0 / qblur=0.5 / ip_ratio=1.30 / pb_ratio=1.20 / aq=1:0.70 / zones=59,761,b=1.6/3306,3692,b=1.6/3874,4005,crf=15/4316,6113,b=1.6/18482,20808,b=1.6/26665,36902,b=1.6/43696,44525,b=1.6/54568,54768,b=1.6/71976,72561,b=1.6/80034,81550,b=1.6/84188,84920,b=1.6/86416,86806,b=1.6/92975,95224,b=1.6/102021,108708,b=1.6/121616,124675,b=1.6/127561,127790,b=1.6/129205,135269,b=1.6/138047,145934,b=1.6/150117,155589,b=1.6
Язык : English
Default : Да
Forced : Нет
Цветовой диапазон : Limited
Коэффициенты матрицы : BT.709
Аудио #1
Идентификатор : 2
Формат : AC-3
Формат/Информация : Audio Coding 3
Коммерческое название : Dolby Digital
Идентификатор кодека : A_AC3
Продолжительность : 1 ч. 55 м.
Вид битрейта : Постоянный
Битрейт : 448 Кбит/сек
Каналы : 6 каналов
Channel layout : L R C LFE Ls Rs
Частота : 48,0 КГц
Частота кадров : 31,250 кадров/сек (1536 SPF)
Метод сжатия : С потерями
Размер потока : 372 Мбайт (2%)
Заголовок : DUB - R5
Язык : Russian
Service kind : Complete Main
Default : Да
Forced : Нет
Аудио #2
Идентификатор : 3
Формат : AC-3
Формат/Информация : Audio Coding 3
Коммерческое название : Dolby Digital
Идентификатор кодека : A_AC3
Продолжительность : 1 ч. 55 м.
Вид битрейта : Постоянный
Битрейт : 192 Кбит/сек
Каналы : 2 канала
Channel layout : L R
Частота : 48,0 КГц
Частота кадров : 31,250 кадров/сек (1536 SPF)
Метод сжатия : С потерями
Размер потока : 159 Мбайт (1%)
Заголовок : MVO - 1 kanal
Язык : Russian
Service kind : Complete Main
Default : Нет
Forced : Нет
Аудио #3
Идентификатор : 4
Формат : DTS
Формат/Информация : Digital Theater Systems
Идентификатор кодека : A_DTS
Продолжительность : 1 ч. 55 м.
Вид битрейта : Постоянный
Битрейт : 1 509 Кбит/сек
Каналы : 6 каналов
Channel layout : C L R Ls Rs LFE
Частота : 48,0 КГц
Частота кадров : 93,750 кадра/сек (512 SPF)
Битовая глубина : 16 бит
Метод сжатия : С потерями
Размер потока : 1,22 Гбайт (8%)
Заголовок : AVO - A.Vazhenin / BadBajo
Язык : Russian
Default : Нет
Forced : Нет
Аудио #4
Идентификатор : 5
Формат : DTS
Формат/Информация : Digital Theater Systems
Идентификатор кодека : A_DTS
Продолжительность : 1 ч. 55 м.
Вид битрейта : Постоянный
Битрейт : 1 509 Кбит/сек
Каналы : 6 каналов
Channel layout : C L R Ls Rs LFE
Частота : 48,0 КГц
Частота кадров : 93,750 кадра/сек (512 SPF)
Битовая глубина : 16 бит
Метод сжатия : С потерями
Размер потока : 1,22 Гбайт (8%)
Язык : English
Default : Нет
Forced : Нет
Текст #1
Идентификатор : 6
Формат : UTF-8
Идентификатор кодека : S_TEXT/UTF8
Идентификатор кодека/Информация : UTF-8 Plain Text
Продолжительность : 1 ч. 37 м.
Битрейт : 1 бит/сек
Count of elements : 26
Размер потока : 1,41 Кбайт (0%)
Заголовок : forced
Язык : Russian
Default : Да
Forced : Нет
Текст #2
Идентификатор : 7
Формат : UTF-8
Идентификатор кодека : S_TEXT/UTF8
Идентификатор кодека/Информация : UTF-8 Plain Text
Продолжительность : 1 ч. 46 м.
Битрейт : 27 бит/сек
Count of elements : 591
Размер потока : 21,0 Кбайт (0%)
Заголовок : full - R5
Язык : Russian
Default : Нет
Forced : Нет
Текст #3
Идентификатор : 8
Формат : UTF-8
Идентификатор кодека : S_TEXT/UTF8
Идентификатор кодека/Информация : UTF-8 Plain Text
Продолжительность : 1 ч. 48 м.
Битрейт : 28 бит/сек
Count of elements : 578
Размер потока : 22,6 Кбайт (0%)
Заголовок : full - vadim_martin
Язык : Russian
Default : Нет
Forced : Нет
Текст #4
Идентификатор : 9
Формат : UTF-8
Идентификатор кодека : S_TEXT/UTF8
Идентификатор кодека/Информация : UTF-8 Plain Text
Продолжительность : 1 ч. 17 м.
Битрейт : 5 бит/сек
Count of elements : 155
Размер потока : 3,40 Кбайт (0%)
Заголовок : forced
Язык : English
Default : Нет
Forced : Нет
Текст #5
Идентификатор : 10
Формат : UTF-8
Идентификатор кодека : S_TEXT/UTF8
Идентификатор кодека/Информация : UTF-8 Plain Text
Продолжительность : 1 ч. 46 м.
Битрейт : 16 бит/сек
Count of elements : 520
Размер потока : 13,0 Кбайт (0%)
Заголовок : full
Язык : English
Default : Нет
Forced : Нет
Текст #6
Идентификатор : 11
Формат : UTF-8
Идентификатор кодека : S_TEXT/UTF8
Идентификатор кодека/Информация : UTF-8 Plain Text
Продолжительность : 1 ч. 49 м.
Битрейт : 44 бит/сек
Count of elements : 767
Размер потока : 35,7 Кбайт (0%)
Заголовок : SDH
Язык : English
Default : Нет
Forced : Нет
Текст #7
Идентификатор : 12
Формат : UTF-8
Идентификатор кодека : S_TEXT/UTF8
Идентификатор кодека/Информация : UTF-8 Plain Text
Продолжительность : 1 ч. 47 м.
Битрейт : 13 бит/сек
Count of elements : 354
Размер потока : 11,0 Кбайт (0%)
Язык : Dutch
Default : Нет
Forced : Нет
Текст #8
Идентификатор : 13
Формат : UTF-8
Идентификатор кодека : S_TEXT/UTF8
Идентификатор кодека/Информация : UTF-8 Plain Text
Продолжительность : 1 ч. 52 м.
Битрейт : 11 бит/сек
Count of elements : 358
Размер потока : 9,53 Кбайт (0%)
Язык : German
Default : Нет
Forced : Нет
Текст #9
Идентификатор : 14
Формат : UTF-8
Идентификатор кодека : S_TEXT/UTF8
Идентификатор кодека/Информация : UTF-8 Plain Text
Продолжительность : 1 ч. 48 м.
Битрейт : 17 бит/сек
Count of elements : 624
Размер потока : 13,7 Кбайт (0%)
Язык : Italian
Default : Нет
Forced : Нет
Текст #10
Идентификатор : 15
Формат : UTF-8
Идентификатор кодека : S_TEXT/UTF8
Идентификатор кодека/Информация : UTF-8 Plain Text
Продолжительность : 1 ч. 46 м.
Битрейт : 15 бит/сек
Count of elements : 588
Размер потока : 12,4 Кбайт (0%)
Язык : Portuguese
Default : Нет
Forced : Нет
Текст #11
Идентификатор : 16
Формат : UTF-8
Идентификатор кодека : S_TEXT/UTF8
Идентификатор кодека/Информация : UTF-8 Plain Text
Продолжительность : 1 ч. 46 м.
Битрейт : 19 бит/сек
Count of elements : 589
Размер потока : 15,3 Кбайт (0%)
Язык : Spanish
Default : Нет
Forced : Нет
Текст #12
Идентификатор : 17
Формат : UTF-8
Идентификатор кодека : S_TEXT/UTF8
Идентификатор кодека/Информация : UTF-8 Plain Text
Продолжительность : 1 ч. 50 м.
Битрейт : 15 бит/сек
Count of elements : 460
Размер потока : 12,4 Кбайт (0%)
Язык : Czech
Default : Нет
Forced : Нет
Текст #13
Идентификатор : 18
Формат : UTF-8
Идентификатор кодека : S_TEXT/UTF8
Идентификатор кодека/Информация : UTF-8 Plain Text
Продолжительность : 1 ч. 47 м.
Битрейт : 14 бит/сек
Count of elements : 511
Размер потока : 11,4 Кбайт (0%)
Язык : Danish
Default : Нет
Forced : Нет
Текст #14
Идентификатор : 19
Формат : UTF-8
Идентификатор кодека : S_TEXT/UTF8
Идентификатор кодека/Информация : UTF-8 Plain Text
Продолжительность : 1 ч. 47 м.
Битрейт : 15 бит/сек
Count of elements : 487
Размер потока : 12,5 Кбайт (0%)
Язык : Finnish
Default : Нет
Forced : Нет
Текст #15
Идентификатор : 20
Формат : UTF-8
Идентификатор кодека : S_TEXT/UTF8
Идентификатор кодека/Информация : UTF-8 Plain Text
Продолжительность : 1 ч. 48 м.
Битрейт : 22 бит/сек
Count of elements : 423
Размер потока : 18,3 Кбайт (0%)
Язык : Greek
Default : Нет
Forced : Нет
Текст #16
Идентификатор : 21
Формат : UTF-8
Идентификатор кодека : S_TEXT/UTF8
Идентификатор кодека/Информация : UTF-8 Plain Text
Продолжительность : 1 ч. 46 м.
Битрейт : 17 бит/сек
Count of elements : 406
Размер потока : 13,5 Кбайт (0%)
Язык : Hebrew
Default : Нет
Forced : Нет
Текст #17
Идентификатор : 22
Формат : UTF-8
Идентификатор кодека : S_TEXT/UTF8
Идентификатор кодека/Информация : UTF-8 Plain Text
Продолжительность : 1 ч. 46 м.
Битрейт : 11 бит/сек
Count of elements : 403
Размер потока : 8,86 Кбайт (0%)
Язык : Croatian
Default : Нет
Forced : Нет
Текст #18
Идентификатор : 23
Формат : UTF-8
Идентификатор кодека : S_TEXT/UTF8
Идентификатор кодека/Информация : UTF-8 Plain Text
Продолжительность : 1 ч. 48 м.
Битрейт : 27 бит/сек
Count of elements : 519
Размер потока : 22,1 Кбайт (0%)
Язык : Bulgarian
Default : Нет
Forced : Нет
Текст #19
Идентификатор : 24
Формат : UTF-8
Идентификатор кодека : S_TEXT/UTF8
Идентификатор кодека/Информация : UTF-8 Plain Text
Продолжительность : 1 ч. 47 м.
Битрейт : 17 бит/сек
Count of elements : 504
Размер потока : 13,9 Кбайт (0%)
Язык : Norwegian
Default : Нет
Forced : Нет
Текст #20
Идентификатор : 25
Формат : UTF-8
Идентификатор кодека : S_TEXT/UTF8
Идентификатор кодека/Информация : UTF-8 Plain Text
Продолжительность : 1 ч. 48 м.
Битрейт : 16 бит/сек
Count of elements : 540
Размер потока : 12,8 Кбайт (0%)
Язык : Romanian
Default : Нет
Forced : Нет
Текст #21
Идентификатор : 26
Формат : UTF-8
Идентификатор кодека : S_TEXT/UTF8
Идентификатор кодека/Информация : UTF-8 Plain Text
Продолжительность : 1 ч. 50 м.
Битрейт : 15 бит/сек
Count of elements : 460
Размер потока : 12,3 Кбайт (0%)
Язык : Slovak
Default : Нет
Forced : Нет
Текст #22
Идентификатор : 27
Формат : UTF-8
Идентификатор кодека : S_TEXT/UTF8
Идентификатор кодека/Информация : UTF-8 Plain Text
Продолжительность : 1 ч. 47 м.
Битрейт : 15 бит/сек
Count of elements : 511
Размер потока : 12,3 Кбайт (0%)
Язык : Swedish
Default : Нет
Forced : Нет
Текст #23
Идентификатор : 28
Формат : UTF-8
Идентификатор кодека : S_TEXT/UTF8
Идентификатор кодека/Информация : UTF-8 Plain Text
Продолжительность : 1 ч. 47 м.
Битрейт : 17 бит/сек
Count of elements : 516
Размер потока : 13,6 Кбайт (0%)
Язык : Turkish
Default : Нет
Forced : Нет
Текст #24
Идентификатор : 29
Формат : UTF-8
Идентификатор кодека : S_TEXT/UTF8
Идентификатор кодека/Информация : UTF-8 Plain Text
Продолжительность : 1 ч. 48 м.
Битрейт : 21 бит/сек
Count of elements : 560
Размер потока : 17,2 Кбайт (0%)
Язык : Vietnamese
Default : Нет
Forced : Нет
Текст #25
Идентификатор : 30
Формат : UTF-8
Идентификатор кодека : S_TEXT/UTF8
Идентификатор кодека/Информация : UTF-8 Plain Text
Продолжительность : 1 ч. 48 м.
Битрейт : 13 бит/сек
Count of elements : 565
Размер потока : 10,9 Кбайт (0%)
Заголовок : traditional
Язык : Chinese
Default : Нет
Forced : Нет
Меню
00:00:00.000 : en:Opening Sequence
00:07:13.000 : en:In Search Of Something
00:14:44.000 : en:Empty Places
00:21:42.000 : en:Locked In
00:30:21.000 : en:Mine
00:36:10.000 : en:What Is Going On?
00:43:56.000 : en:There's Nowhere To Go
00:50:24.000 : en:You Have Me
00:58:28.000 : en:Who Was That?
01:05:21.000 : en:Left Alone
01:12:30.000 : en:My Father's Dead
01:19:55.000 : en:Do You Like It?
01:28:52.000 : en:New Year's Eve
01:36:57.000 : en:Pack Your Things
01:43:09.000 : en:Escape
01:50:48.000 : en:End Credits

Награды

1 win & 23 nominations - https://www.imdb.com/title/tt3335606/awards?ref_=tt_awd
[cybertorrent.ru].t18964.torrent 
Торрент: Зарегистрирован [ 2020-05-22 17:58 ] · E917A53F1820592D12E004CD0B431A72CA3184CD

Скачать .torrent

Скачать

81 KB

Статус: проверено
Скачан: 0 раз
Размер: 16,08 GB  ·  Тип торрента
terms.php
Профиль [ЛС]
Показать сообщения:    

Текущее время: 06-Июн 01:26

Часовой пояс: UTC ± 0



Вы не можете начинать темы
Вы не можете отвечать на сообщения
Вы не можете редактировать свои сообщения
Вы не можете удалять свои сообщения
Вы не можете голосовать в опросах
Вы не можете прикреплять файлы к сообщениям
Вы можете скачивать файлы