Статистика раздачи
Размер:  15,73 GB   |    Зарегистрирован:  15 дней   |    Скачан:  0 раз
DL-List: Нет

Полного источника не было: Никогда

 
     
 
 

MAGNAT ®

Пол:
Мужской
Стаж:
1 год 2 месяца
Сообщений:
7952

Жадность / Greed
«Дьявол оптом и в розницу»
Страна: Великобритания
Жанр: Драма, комедия
Год выпуска: 2019
Продолжительность: 01:44:21-Перевод: Профессиональный (дублированный) | (iTunes)
Cубтитры: Английские (forced, full, SDH)
Оригинальная аудиодорожка: Английский-Режиссёр: Майкл Уинтерботтом / Michael Winterbottom
В ролях: Стив Куган, Айла Фишер, Ширли Хендерсон, Дэвид Митчелл, Эйса Баттерфилд, Динита Гохил, Софи Куксон, Джейми Блэкли, Шанина Шейк, Джонни Свит
Описание: Миллиардер, владелец самых модных брендов одежды, сделавший состояние с помощью дешевой рабочей силы и авантюрных манипуляций, с помпой отмечает 60-летие на греческом острове Миконос, где собирается весь мировой бомонд. Какие сюрпризы приготовил своим звездным гостям циничный юбиляр?..-Тип релиза: BDRemux 1080p
Контейнер: MKV-Видео: AVC/H.264, 1920x1080, 17200 Kbps, 23.976 fps
Аудио 1: Русский | AC-3, 6 ch, 384 Kbps, 48.0 KHz
Аудио 2: Английский | DTS-HD MA, 6 ch, 4027 Kbps, 48.0 KHz, 24-bit (DTS Core: 5.1 / 48 kHz / 1509 kbps / 24-bit)
-

MediaInfo

Код:
General
Unique ID : 219985677270235511293438956594413625552 (0xA57FB3481CE611356F795D4D1BAAE0D0)
Complete name : /Volumes/Promise Pegasus/Greed.BDRemux.1080p.mkv
Format : Matroska
Format version : Version 4
File size : 15.7 GiB
Duration : 1h 44mn
Overall bit rate mode : Variable
Overall bit rate : 21.6 Mbps
Movie name : Greed BDRemux 1080p
Encoded date : UTC 2020-05-17 23:25:06
Writing application : mkvmerge v46.0.0 ('No Deeper Escape') 64-bit
Writing library : libebml v1.3.10 + libmatroska v1.5.2
Video
ID : 1
Format : AVC
Format/Info : Advanced Video Codec
Format profile : High@L4.1
Format settings : CABAC / 2 Ref Frames
Format settings, CABAC : Yes
Format settings, ReFrames : 2 frames
Format settings, GOP : M=1, N=5
Codec ID : V_MPEG4/ISO/AVC
Duration : 1h 44mn
Bit rate mode : Variable
Bit rate : 17.2 Mbps
Maximum bit rate : 38.2 Mbps
Width : 1 920 pixels
Height : 1 080 pixels
Display aspect ratio : 16:9
Frame rate mode : Constant
Frame rate : 23.976 (24000/1001) fps
Color space : YUV
Chroma subsampling : 4:2:0
Bit depth : 8 bits
Scan type : Progressive
Bits/(Pixel*Frame) : 0.346
Stream size : 12.5 GiB (80%)
Language : English
Default : Yes
Forced : No
Audio #1
ID : 2
Format : AC-3
Format/Info : Audio Coding 3
Commercial name : Dolby Digital
Codec ID : A_AC3
Duration : 1h 44mn
Bit rate mode : Constant
Bit rate : 384 Kbps
Channel(s) : 6 channels
Channel layout : L R C LFE Ls Rs
Sampling rate : 48.0 KHz
Frame rate : 31.250 fps (1536 SPF)
Compression mode : Lossy
Stream size : 286 MiB (2%)
Title : Russian Dub iTunes
Language : Russian
Service kind : Complete Main
Default : Yes
Forced : No
Audio #2
ID : 3
Format : DTS XLL
Format/Info : Digital Theater Systems
Commercial name : DTS-HD Master Audio
Codec ID : A_DTS
Duration : 1h 44mn
Bit rate mode : Variable
Bit rate : 4 027 Kbps
Channel(s) : 6 channels
Channel layout : C L R Ls Rs LFE
Sampling rate : 48.0 KHz
Frame rate : 93.750 fps (512 SPF)
Bit depth : 24 bits
Compression mode : Lossless
Stream size : 2.93 GiB (19%)
Title : English Original
Language : English
Default : No
Forced : No
Text #1
ID : 4
Format : UTF-8
Codec ID : S_TEXT/UTF8
Codec ID/Info : UTF-8 Plain Text
Duration : 14mn 12s
Bit rate : 1 bps
Count of elements : 7
Stream size : 142 Bytes (0%)
Title : English forced
Language : English
Default : No
Forced : No
Text #2
ID : 5
Format : UTF-8
Codec ID : S_TEXT/UTF8
Codec ID/Info : UTF-8 Plain Text
Duration : 1h 39mn
Bit rate : 96 bps
Count of elements : 1984
Stream size : 70.5 KiB (0%)
Title : English full
Language : English
Default : No
Forced : No
Text #3
ID : 6
Format : UTF-8
Codec ID : S_TEXT/UTF8
Codec ID/Info : UTF-8 Plain Text
Duration : 1h 41mn
Bit rate : 102 bps
Count of elements : 2192
Stream size : 76.0 KiB (0%)
Title : English SDH
Language : English
Default : No
Forced : No
Menu
00:00:00.000 : en:
00:10:04.771 : en:
00:20:01.992 : en:
00:30:08.265 : en:
00:40:03.192 : en:
00:50:06.921 : en:
01:00:09.147 : en:
01:10:05.118 : en:
01:20:04.883 : en:
01:30:05.859 : en:
01:37:41.022 : en:
01:44:09.243 : en:

Скриншоты

[cybertorrent.ru].t18969.torrent 
Торрент: Зарегистрирован [ 2020-05-22 18:02 ] · 6123B69459C7D552AB3A8154F934D3FB0EE4629F

Скачать .torrent

Скачать

158 KB

Статус: проверено
Скачан: 0 раз
Размер: 15,73 GB  ·  Тип торрента
terms.php
Профиль [ЛС]
Показать сообщения:    

Текущее время: 06-Июн 19:56

Часовой пояс: UTC ± 0



Вы не можете начинать темы
Вы не можете отвечать на сообщения
Вы не можете редактировать свои сообщения
Вы не можете удалять свои сообщения
Вы не можете голосовать в опросах
Вы не можете прикреплять файлы к сообщениям
Вы можете скачивать файлы