Статистика раздачи
Размер:  28,12 GB   |    Зарегистрирован:  14 дней   |    Скачан:  0 раз
DL-List: Нет

Полного источника не было: Никогда

 
     
 
 

MAGNAT ®

Пол:
Мужской
Стаж:
1 год 2 месяца
Сообщений:
7952

Звёздные войны: Скайуокер. Восход / Star Wars: Episode IX - The Rise of Skywalker
--Страна: США
Студия: Lucasfilm, Bad Robot, Digital Makeup Group
Жанр: фантастика, фэнтези, боевик, приключения
Год выпуска: 2019
Продолжительность: 02:21:53--Перевод 1: Профессиональный (дублированный) iTunes
Перевод 2: Авторский (одноголосый закадровый) Ю. Сербин
Субтитры: русские (forced, full, SDH), английские (forced, full, SDH)
Оригинальная аудиодорожка: английский--Режиссер: Джей Джей Абрамс / J.J. Abrams
В ролях: Дэйзи Ридли, Адам Драйвер, Кэрри Фишер, Марк Хэмилл, Джон Бойега, Оскар Айзек, Энтони Дэниелс, Наоми Аки, Донал Глисон, Ричард Э. Грант--Описание: Фильм завершает невероятную историю семьи Скайуокеров, длящуюся уже более сорока лет, и обещает дать ответы на все загадки из предыдущих серий. Зрителя ожидают старые и новые герои, уникальные миры, увлекательные путешествия на край Галактики и грандиозный финал фантастической саги.---Тип релиза: UHD BDRip 1080p [Star Wars: Episode IX - The Rise of Skywalker 2019 1080p UHD BluRay DD+7.1 HDR x265-SA89]
Контейнер: MKV
Видео: MPEG-H HEVC Video / 24,7 Mbps / 1920x804 / 23,976 fps / 2.40:1 / Main 10 @ Level 5.1 @ High / 4:2:0 / 10 bits / HDR10 / BT.2020
Аудио 1: Russian AC3 / 5.1 / 48 kHz / 384 kbps |Dub, iTunes|
Аудио 2: Russian DTS / 5.1 / 48 kHz / 1509 kbps / 24-bit |Ю. Сербин|
Аудио 3: Russian AC3 / 2.0 / 48 kHz / 192 kbps |Descriptive iTunes|
Аудио 4: English E-AC3 / 7.1 / 48 kHz / 1536 kbps |original|
Формат субтитров: softsub [SRT]

MediaInfo

Код:
Общее
Уникальный идентификатор : 23953609500479989228605616020397508265 (0x12054C212E870F8D5B9BB67F9A4446A9)
Полное имя : G:\HD\Звёздные войны.Скайуокер.Восход.2019.UHD.BDRip.1080p.HDR.mkv
Формат : Matroska
Версия формата : Version 4
Размер файла : 28,1 Гбайт
Продолжительность : 2 ч. 21 м.
Общий поток : 28,4 Мбит/сек
Дата кодирования : UTC 2020-05-17 12:05:47
Программа кодирования : mkvmerge v46.0.0 ('No Deeper Escape') 64-bit
Библиотека кодирования : libebml v1.3.10 + libmatroska v1.5.2
Attachments : poster.jpg
Видео
Идентификатор : 1
Формат : HEVC
Формат/Информация : High Efficiency Video Coding
Профиль формата : Main 10@L5.1@High
HDR format : SMPTE ST 2086, HDR10 compatible
Идентификатор кодека : V_MPEGH/ISO/HEVC
Продолжительность : 2 ч. 21 м.
Битрейт : 24,7 Мбит/сек
Ширина : 1 920 пикселей
Высота : 804 пикселя
Соотношение сторон : 2,40:1
Режим частоты кадров : Постоянный
Частота кадров : 23,976 (24000/1001) кадра/сек
Цветовое пространство : YUV
Субдискретизация насыщенности : 4:2:0 (Type 2)
Битовая глубина : 10 бит
Бит/(Пиксели*Кадры) : 0.669
Размер потока : 24,5 Гбайт (87%)
Заголовок : Star Wars: Episode IX - The Rise of Skywalker 2019 1080p UHD BluRay DD+7.1 HDR x265-SA89
Библиотека кодирования : x265 3.2+34-8e6db24c1517:[Windows][GCC 9.2.0][64 bit] 10bit
Настройки программы : cpuid=1111039 / frame-threads=4 / numa-pools=24 / wpp / no-pmode / no-pme / no-psnr / no-ssim / log-level=2 / input-csp=1 / input-res=1920x804 / interlace=0 / total-frames=204114 / level-idc=51 / high-tier=1 / uhd-bd=0 / ref=6 / no-allow-non-conformance / repeat-headers / annexb / aud / hrd / info / hash=0 / no-temporal-layers / no-open-gop / min-keyint=24 / keyint=240 / gop-lookahead=0 / bframes=16 / b-adapt=2 / b-pyramid / bframe-bias=0 / rc-lookahead=60 / lookahead-slices=0 / scenecut=40 / hist-scenecut=0 / radl=0 / no-splice / no-intra-refresh / ctu=32 / min-cu-size=8 / no-rect / no-amp / max-tu-size=32 / tu-inter-depth=4 / tu-intra-depth=4 / limit-tu=0 / rdoq-level=2 / dynamic-rd=0.00 / no-ssim-rd / signhide / no-tskip / nr-intra=0 / nr-inter=0 / no-constrained-intra / strong-intra-smoothing / max-merge=3 / limit-refs=1 / no-limit-modes / me=3 / subme=7 / merange=57 / temporal-mvp / no-frame-dup / no-hme / weightp / no-weightb / no-analyze-src-pics / deblock=-3:-3 / no-sao / no-sao-non-deblock / rd=3 / selective-sao=0 / early-skip / no-rskip / no-fast-intra / no-tskip-fast / no-cu-lossless / b-intra / no-splitrd-skip / rdpenalty=0 / psy-rd=2.00 / psy-rdoq=2.00 / no-rd-refine / no-lossless / cbqpoffs=0 / crqpoffs=0 / rc=crf / crf=14.5 / qcomp=0.60 / qpstep=4 / stats-write=0 / stats-read=0 / vbv-maxrate=160000 / vbv-bufsize=160000 / vbv-init=0.9 / crf-max=0.0 / crf-min=0.0 / ipratio=1.40 / pbratio=1.30 / aq-mode=3 / aq-strength=1.00 / no-cutree / zone-count=0 / no-strict-cbr / qg-size=16 / no-rc-grain / qpmax=69 / qpmin=0 / no-const-vbv / sar=1 / overscan=0 / videoformat=5 / range=0 / colorprim=9 / transfer=16 / colormatrix=9 / chromaloc=1 / chromaloc-top=2 / chromaloc-bottom=2 / display-window=0 / master-display=G(13250,34500)B(7500,3000)R(34000,16000)WP(15635,16450)L(10000000,1) / cll=724,647 / min-luma=0 / max-luma=1023 / log2-max-poc-lsb=8 / vui-timing-info / vui-hrd-info / slices=1 / no-opt-qp-pps / no-opt-ref-list-length-pps / no-multi-pass-opt-rps / scenecut-bias=0.05 / hist-threshold=0.01 / no-opt-cu-delta-qp / no-aq-motion / hdr10 / hdr10-opt / no-dhdr10-opt / no-idr-recovery-sei / analysis-reuse-level=0 / analysis-save-reuse-level=0 / analysis-load-reuse-level=0 / scale-factor=0 / refine-intra=0 / refine-inter=0 / refine-mv=0 / refine-ctu-distortion=0 / no-limit-sao / ctu-info=0 / no-lowpass-dct / refine-analysis-type=0 / copy-pic=1 / max-ausize-factor=1.0 / no-dynamic-refine / no-single-sei / no-hevc-aq / no-svt / no-field / qp-adaptation-range=1.00 / no-scenecut-aware-qpconformance-window-offsets / right=0 / bottom=0
Default : Да
Forced : Нет
Цветовой диапазон : Limited
Основные цвета : BT.2020
Характеристики трансфера : PQ
Коэффициенты матрицы : BT.2020 non-constant
Mastering display color primaries : Display P3
Mastering display luminance : min: 0.0001 cd/m2, max: 1000 cd/m2
Maximum Content Light Level : 724 cd/m2
Maximum Frame-Average Light Level : 647 cd/m2
Аудио #1
Идентификатор : 2
Формат : AC-3
Формат/Информация : Audio Coding 3
Коммерческое название : Dolby Digital
Идентификатор кодека : A_AC3
Продолжительность : 2 ч. 21 м.
Вид битрейта : Постоянный
Битрейт : 384 Кбит/сек
Каналы : 6 каналов
Channel layout : L R C LFE Ls Rs
Частота : 48,0 КГц
Частота кадров : 31,250 кадров/сек (1536 SPF)
Метод сжатия : С потерями
Размер потока : 390 Мбайт (1%)
Заголовок : Dub, iTunes
Язык : Russian
Service kind : Complete Main
Default : Да
Forced : Нет
Аудио #2
Идентификатор : 3
Формат : DTS
Формат/Информация : Digital Theater Systems
Идентификатор кодека : A_DTS
Продолжительность : 2 ч. 21 м.
Вид битрейта : Постоянный
Битрейт : 1 509 Кбит/сек
Каналы : 6 каналов
Channel layout : C L R Ls Rs LFE
Частота : 48,0 КГц
Частота кадров : 93,750 кадра/сек (512 SPF)
Битовая глубина : 24 бит
Метод сжатия : С потерями
Размер потока : 1,50 Гбайт (5%)
Заголовок : Ю. Сербин
Язык : Russian
Default : Нет
Forced : Нет
Аудио #3
Идентификатор : 4
Формат : AC-3
Формат/Информация : Audio Coding 3
Коммерческое название : Dolby Digital
Идентификатор кодека : A_AC3
Продолжительность : 2 ч. 21 м.
Вид битрейта : Постоянный
Битрейт : 192 Кбит/сек
Каналы : 2 канала
Channel layout : L R
Частота : 48,0 КГц
Частота кадров : 31,250 кадров/сек (1536 SPF)
Метод сжатия : С потерями
Размер потока : 195 Мбайт (1%)
Заголовок : Descriptive iTunes
Язык : Russian
Service kind : Complete Main
Default : Нет
Forced : Нет
Аудио #4
Идентификатор : 5
Формат : E-AC-3
Формат/Информация : Enhanced AC-3
Коммерческое название : Dolby Digital Plus
Профиль формата : Blu-ray Disc
Идентификатор кодека : A_EAC3
Продолжительность : 2 ч. 21 м.
Вид битрейта : Постоянный
Битрейт : 1 536 Кбит/сек
Каналы : 8 каналов
Channel layout : L R C LFE Ls Rs Lb Rb
Частота : 48,0 КГц
Частота кадров : 31,250 кадров/сек (1536 SPF)
Метод сжатия : С потерями
Размер потока : 1,52 Гбайт (5%)
Язык : English
Service kind : Complete Main
Default : Нет
Forced : Нет
Текст #1
Идентификатор : 6
Формат : UTF-8
Идентификатор кодека : S_TEXT/UTF8
Идентификатор кодека/Информация : UTF-8 Plain Text
Продолжительность : 1 ч. 37 м.
Битрейт : 1 бит/сек
Count of elements : 10
Размер потока : 938 байт (0%)
Заголовок : forced
Язык : Russian
Default : Да
Forced : Нет
Текст #2
Идентификатор : 7
Формат : UTF-8
Идентификатор кодека : S_TEXT/UTF8
Идентификатор кодека/Информация : UTF-8 Plain Text
Продолжительность : 2 ч. 17 м.
Битрейт : 57 бит/сек
Count of elements : 1435
Размер потока : 58,1 Кбайт (0%)
Заголовок : full
Язык : Russian
Default : Нет
Forced : Нет
Текст #3
Идентификатор : 8
Формат : UTF-8
Идентификатор кодека : S_TEXT/UTF8
Идентификатор кодека/Информация : UTF-8 Plain Text
Продолжительность : 2 ч. 11 м.
Битрейт : 73 бит/сек
Count of elements : 1764
Размер потока : 71,1 Кбайт (0%)
Заголовок : SDH
Язык : Russian
Default : Нет
Forced : Нет
Текст #4
Идентификатор : 9
Формат : UTF-8
Идентификатор кодека : S_TEXT/UTF8
Идентификатор кодека/Информация : UTF-8 Plain Text
Продолжительность : 1 с. 627 мс.
Битрейт : 127 бит/сек
Count of elements : 1
Размер потока : 26,0 байт (0%)
Заголовок : forced
Язык : English
Default : Нет
Forced : Нет
Текст #5
Идентификатор : 10
Формат : UTF-8
Идентификатор кодека : S_TEXT/UTF8
Идентификатор кодека/Информация : UTF-8 Plain Text
Продолжительность : 2 ч. 11 м.
Битрейт : 39 бит/сек
Count of elements : 1460
Размер потока : 37,9 Кбайт (0%)
Заголовок : full
Язык : English
Default : Нет
Forced : Нет
Текст #6
Идентификатор : 11
Формат : UTF-8
Идентификатор кодека : S_TEXT/UTF8
Идентификатор кодека/Информация : UTF-8 Plain Text
Продолжительность : 2 ч. 11 м.
Битрейт : 48 бит/сек
Count of elements : 1895
Размер потока : 47,1 Кбайт (0%)
Заголовок : SDH
Язык : English
Default : Нет
Forced : Нет
Меню
00:00:00.000 : :Opening Logo
00:00:09.275 : :The Rise of Skywalker
00:01:40.983 : :Kylo Ren's Quest
00:03:47.850 : :Exegol
00:06:42.951 : :Millennium Falcon Mission
00:08:26.723 : :Pursuit of the Falcon
00:10:04.924 : :Rey's Training Course
00:12:48.242 : :General Leia
00:13:54.050 : :The Falcon's Back
00:15:17.466 : :Spy Message
00:17:13.248 : :'We Go Together'
00:19:25.087 : :Ren Reforged
00:21:28.626 : :Pasaana Festival
00:25:27.742 : :General Calrissian
00:27:14.933 : :Speeder Chase
00:30:41.598 : :Buried Secrets
00:35:49.112 : :Power Unleashed
00:41:37.794 : :Aftermath
00:43:15.309 : :'In This Till the End'
00:45:28.390 : :Meeting Zorii
00:48:24.618 : :Babu Frik's Workshop
00:54:37.614 : :Into the Destroyer
00:58:49.242 : :Revelations
01:02:54.821 : :Repercussions
01:06:23.153 : :To Kef Bir
01:09:54.654 : :Jannah
01:13:07.430 : :The Emperor's Vault
01:18:23.662 : :The Duel
01:23:41.274 : :Remembrance
01:27:02.933 : :The Final Order Begins
01:30:23.165 : :The Destiny of a Jedi
01:35:00.869 : :Battle Plans
01:38:47.930 : :Welcome to Exegol
01:40:35.913 : :Drop Zone
01:43:03.184 : :Throne of the Sith
01:45:27.913 : :Dark Turn
01:48:48.237 : :Dyad in the Force
01:53:27.683 : :The Galaxy Responds
01:55:30.796 : :Emperor Reborn
01:59:02.999 : :Last Chance
02:01:37.797 : :Ben
02:05:20.480 : :Victory
02:09:42.742 : :Saga's End
02:12:24.000 : :End Credits

Скриншоты


[cybertorrent.ru].t18975.torrent 
Торрент: Зарегистрирован [ 2020-05-22 18:06 ] · 563286B5F59617CD916DCD1684C251CF673F4DD8

Скачать .torrent

Скачать

71 KB

Статус: проверено
Скачан: 0 раз
Размер: 28,12 GB  ·  Тип торрента
terms.php
Профиль [ЛС]
Показать сообщения:    

Текущее время: 06-Июн 00:36

Часовой пояс: UTC ± 0



Вы не можете начинать темы
Вы не можете отвечать на сообщения
Вы не можете редактировать свои сообщения
Вы не можете удалять свои сообщения
Вы не можете голосовать в опросах
Вы не можете прикреплять файлы к сообщениям
Вы можете скачивать файлы