Статистика раздачи
Нет
 
     
 
 

MAGNAT ®

Пол:
Мужской
Стаж:
1 год 2 месяца
Сообщений:
7949

Соник в кино / Sonic the Hedgehog
--Страна: США, Япония, Канада
Студия: Paramount Pictures, Sega, Original Film
Жанр: фантастика, комедия, приключения, семейный
Год выпуска: 2020
Продолжительность: 01:38:53--Перевод 1: Профессиональный (дублированный) UHD Blu-Ray
Перевод 2: Любительский (многоголосый закадровый) HDRezka Studio
Субтитры: русские (forced, full), английские (full, SDH, Commentary)
Оригинальная аудиодорожка: английский--Режиссер: Джефф Фаулер / Jeff Fowler
В ролях: Джеймс Марсден, Бен Шварц, Наташа Ротуэлл, Тика Самптер, Нил МакДонаф, Адам Палли, Джим Керри, Майкл Хоган, Ли Мадждуб, Том Батлер, Фрэнк Ч. Тёрнер--Описание: Отвязный ярко-синий ёжик Соник из параллельного мира вместе с новообретённым лучшим другом-человеком по имени Том знакомится со сложностями жизни на Земле и противостоит злодейскому доктору Роботнику, который хочет пленить Соника и использовать его безграничные суперсилы для завоевания мирового господства.----Тип релиза: BDRip 720p [Sonic The Hedgehog 2020 720p BluRay DD-EX 5 1 x264-iFT]
Контейнер: MKV
Видео: MPEG-4 AVC Video / 6955 kbps / 1280x536 / 23,976 fps / 2.40:1 / High Profile 4.1
Аудио 1: Russian AC3 / 5.1 / 48 kHz / 640 kbps |Dub, UHD Blu-Ray|
Аудио 2: Russian AC3 / 2.0 / 48 kHz / 192 kbps |MVO, HDRezka Studio|
Аудио 3: English AC3 / 5.1-EX / 48 kHz / 640 kbps |original|
Аудио 4: English AC3 / 2.0 / 48 kHz / 224 kbps |Commentary by Director Jeff Fowler/Ben Schwartz (Voice of Sonic)|
Формат субтитров: softsub [SRT]

MediaInfo

Код:
Общее
Уникальный идентификатор : 314631594530208613379708918689240885871 (0xECB3D7478E41CADF21CAB48B3D02AA6F)
Полное имя : G:\HD\Соник в кино.2020.BDRip.720p.mkv
Формат : Matroska
Версия формата : Version 4
Размер файла : 5,98 Гбайт
Продолжительность : 1 ч. 38 м.
Общий поток : 8 654 Кбит/сек
Дата кодирования : UTC 2020-05-16 15:56:54
Программа кодирования : mkvmerge v46.0.0 ('No Deeper Escape') 64-bit
Библиотека кодирования : libebml v1.3.10 + libmatroska v1.5.2
Attachments : poster.jpg
Видео
Идентификатор : 1
Формат : AVC
Формат/Информация : Advanced Video Codec
Профиль формата : High@L4.1
Настройки формата : CABAC / 12 Ref Frames
Параметр CABAC формата : Да
Параметр RefFrames формата : 12 кадров
Идентификатор кодека : V_MPEG4/ISO/AVC
Продолжительность : 1 ч. 38 м.
Битрейт : 6 955 Кбит/сек
Ширина : 1 280 пикселей
Высота : 536 пикселей
Соотношение сторон : 2,40:1
Режим частоты кадров : Постоянный
Частота кадров : 23,976 (24000/1001) кадра/сек
Цветовое пространство : YUV
Субдискретизация насыщенности : 4:2:0
Битовая глубина : 8 бит
Тип развёртки : Прогрессивная
Бит/(Пиксели*Кадры) : 0.423
Размер потока : 4,80 Гбайт (80%)
Заголовок : Sonic.The.Hedgehog.2020.720p.BluRay.DD-EX.5.1.x264-iFT
Библиотека кодирования : x264 core 160 r3000+55 ~ Encoded by Mocunaman in Portugal
Настройки программы : cabac=1 / ref=12 / deblock=1:-3:-3 / analyse=0x3:0x113 / me=umh / subme=11 / psy=1 / fade_compensate=0.00 / psy_rd=1.00:0.00 / mixed_ref=1 / me_range=48 / chroma_me=1 / trellis=2 / 8x8dct=1 / cqm=0 / deadzone=21,11 / fast_pskip=0 / chroma_qp_offset=-2 / threads=17 / lookahead_threads=2 / sliced_threads=0 / nr=0 / decimate=0 / interlaced=0 / bluray_compat=0 / constrained_intra=0 / fgo=0 / bframes=8 / b_pyramid=2 / b_adapt=2 / b_bias=0 / direct=3 / weightb=1 / open_gop=0 / weightp=2 / keyint=250 / keyint_min=23 / scenecut=40 / intra_refresh=0 / rc_lookahead=60 / rc=crf / mbtree=0 / crf=14.5000 / qcomp=0.65 / qpmin=0:0:0 / qpmax=69:69:69 / qpstep=4 / vbv_maxrate=62500 / vbv_bufsize=78125 / crf_max=0.0 / nal_hrd=none / filler=0 / ip_ratio=1.30 / pb_ratio=1.20 / aq=3:0.80 / aq-sensitivity=10.00 / aq-factor=1.00:1.00:1.00 / aq2=0 / aq3=0
Язык : English
Default : Да
Forced : Нет
Цветовой диапазон : Limited
Основные цвета : BT.709
Характеристики трансфера : BT.709
Коэффициенты матрицы : BT.709
Аудио #1
Идентификатор : 2
Формат : AC-3
Формат/Информация : Audio Coding 3
Коммерческое название : Dolby Digital
Идентификатор кодека : A_AC3
Продолжительность : 1 ч. 38 м.
Вид битрейта : Постоянный
Битрейт : 640 Кбит/сек
Каналы : 6 каналов
Channel layout : L R C LFE Ls Rs
Частота : 48,0 КГц
Частота кадров : 31,250 кадров/сек (1536 SPF)
Метод сжатия : С потерями
Размер потока : 453 Мбайт (7%)
Заголовок : Dub, UHD Blu-Ray
Язык : Russian
Service kind : Complete Main
Default : Да
Forced : Нет
Аудио #2
Идентификатор : 3
Формат : AC-3
Формат/Информация : Audio Coding 3
Коммерческое название : Dolby Digital
Идентификатор кодека : A_AC3
Продолжительность : 1 ч. 38 м.
Вид битрейта : Постоянный
Битрейт : 192 Кбит/сек
Каналы : 2 канала
Channel layout : L R
Частота : 48,0 КГц
Частота кадров : 31,250 кадров/сек (1536 SPF)
Метод сжатия : С потерями
Размер потока : 136 Мбайт (2%)
Заголовок : MVO, HDRezka Studio
Язык : Russian
Service kind : Complete Main
Default : Нет
Forced : Нет
Аудио #3
Идентификатор : 4
Формат : AC-3
Формат/Информация : Audio Coding 3
Коммерческое название : Dolby Digital
Идентификатор кодека : A_AC3
Продолжительность : 1 ч. 38 м.
Вид битрейта : Постоянный
Битрейт : 640 Кбит/сек
Каналы : 6 каналов
Channel layout : L R C LFE Ls Rs
Частота : 48,0 КГц
Частота кадров : 31,250 кадров/сек (1536 SPF)
Метод сжатия : С потерями
Размер потока : 453 Мбайт (7%)
Язык : English
Service kind : Complete Main
Default : Нет
Forced : Нет
Аудио #4
Идентификатор : 5
Формат : AC-3
Формат/Информация : Audio Coding 3
Коммерческое название : Dolby Digital
Идентификатор кодека : A_AC3
Продолжительность : 1 ч. 38 м.
Вид битрейта : Постоянный
Битрейт : 224 Кбит/сек
Каналы : 2 канала
Channel layout : L R
Частота : 48,0 КГц
Частота кадров : 31,250 кадров/сек (1536 SPF)
Метод сжатия : С потерями
Размер потока : 158 Мбайт (3%)
Заголовок : Commentary by Director Jeff Fowler/Ben Schwartz (Voice of Sonic)
Язык : English
Service kind : Complete Main
Default : Нет
Forced : Нет
Текст #1
Идентификатор : 6
Формат : UTF-8
Идентификатор кодека : S_TEXT/UTF8
Идентификатор кодека/Информация : UTF-8 Plain Text
Продолжительность : 1 ч. 35 м.
Битрейт : 1 бит/сек
Count of elements : 25
Размер потока : 992 байт (0%)
Заголовок : forced
Язык : Russian
Default : Да
Forced : Нет
Текст #2
Идентификатор : 7
Формат : UTF-8
Идентификатор кодека : S_TEXT/UTF8
Идентификатор кодека/Информация : UTF-8 Plain Text
Продолжительность : 1 ч. 37 м.
Битрейт : 92 бит/сек
Count of elements : 1294
Размер потока : 66,0 Кбайт (0%)
Заголовок : full
Язык : Russian
Default : Нет
Forced : Нет
Текст #3
Идентификатор : 8
Формат : UTF-8
Идентификатор кодека : S_TEXT/UTF8
Идентификатор кодека/Информация : UTF-8 Plain Text
Продолжительность : 1 ч. 31 м.
Битрейт : 66 бит/сек
Count of elements : 1269
Размер потока : 44,5 Кбайт (0%)
Заголовок : full
Язык : English
Default : Нет
Forced : Нет
Текст #4
Идентификатор : 9
Формат : UTF-8
Идентификатор кодека : S_TEXT/UTF8
Идентификатор кодека/Информация : UTF-8 Plain Text
Продолжительность : 1 ч. 32 м.
Битрейт : 75 бит/сек
Count of elements : 1592
Размер потока : 51,2 Кбайт (0%)
Заголовок : SDH
Язык : English
Default : Нет
Forced : Нет
Текст #5
Идентификатор : 10
Формат : UTF-8
Идентификатор кодека : S_TEXT/UTF8
Идентификатор кодека/Информация : UTF-8 Plain Text
Продолжительность : 1 ч. 38 м.
Битрейт : 122 бит/сек
Count of elements : 1999
Размер потока : 88,7 Кбайт (0%)
Заголовок : Commentary by Director Jeff Fowler/Ben Schwartz (Voice of Sonic)
Язык : English
Default : Нет
Forced : Нет
Меню
00:00:00.000 : :Chapter 01
00:03:51.856 : :Chapter 02
00:09:32.989 : :Chapter 03
00:12:45.973 : :Chapter 04
00:18:09.421 : :Chapter 05
00:22:20.339 : :Chapter 06
00:27:33.693 : :Chapter 07
00:35:09.315 : :Chapter 08
00:41:37.328 : :Chapter 09
00:51:24.623 : :Chapter 10
01:01:04.827 : :Chapter 11
01:04:38.207 : :Chapter 12
01:10:20.341 : :Chapter 13
01:18:54.020 : :Chapter 14
01:25:38.716 : :Chapter 15
01:30:27.296 : :Chapter 16

Скриншоты


Профиль [ЛС]
Показать сообщения:    

Текущее время: 05-Июн 08:16

Часовой пояс: UTC ± 0



Вы не можете начинать темы
Вы не можете отвечать на сообщения
Вы не можете редактировать свои сообщения
Вы не можете удалять свои сообщения
Вы не можете голосовать в опросах
Вы не можете прикреплять файлы к сообщениям
Вы не можете скачивать файлы