Статистика раздачи
Размер:  21,24 GB   |    Зарегистрирован:  15 дней   |    Скачан:  0 раз
DL-List: Нет

Полного источника не было: Никогда

 
     
 
 

MAGNAT ®

Пол:
Мужской
Стаж:
1 год 2 месяца
Сообщений:
7952

Точка отрыва / Action Point
Страна: США
Жанр: Комедия
Год выпуска: 2018
Продолжительность: 01:24:38
Перевод 1: Профессиональный (дублированный) BD EUR
Перевод 2: Любительский (многоголосый закадровый) HDRezka Studio
Субтитры: Русские, английские
Оригинальная аудиодорожка: Английский
Режиссер: Тим Киркби / Tim Kirkby
В ролях: Джонни Ноксвил, Элинор Уортингтон-Кокс, Крис Понтиус, Дэн Баккедаль, Джонни Пембертон, Бригитт Ланди-Пейн, Эрик Манака, Джошуа Хувер, Коннер МакВикер, Майкл Эверсон
Описание: История безрассудного парня, который решает претворить в жизнь свой амбициозный проект. Собрав команду таких же сумасбродов, он конструирует и открывает совершенно особенный парк развлечений. К какой-то катастрофе это приведет?
Тип релиза: BDRemux 1080p
Контейнер: MKV
Видео: MPEG-4 AVC, 1080p, 1920:1080 (16:9), 30702 kbps, 23.976 fps
Аудио 1: АС3, 6 ch, 48 kHz, 640 kbps, 16-bits Русский Dub BD EUR
Аудио 2: АС3, 2 ch, 48 kHz, 192 kbps, 16 bits Русский MVO HDRezka Studio
Аудио 3: DTS-HD MA, 8 ch, 48 kHz, 4599 kbps, 24-bit (DTS Core 6 ch, 48 kHz, 1509 kbps, 24-bit) Английский
Формат субтитров: SRT

MediaInfo

General
Unique ID : 219504977372833310353803571787126828645 (0xA5231EF269E2BCB209BAAAB612DC6E65)
Complete name : G:\Action.Point.2018.REMUX.mkv
Format : Matroska
Format version : Version 4
File size : 21.2 GiB
Duration : 1 h 24 min
Overall bit rate mode : Variable
Overall bit rate : 35.9 Mb/s
Encoded date : UTC 2020-05-15 09:24:01
Writing application : mkvmerge v20.0.0 ('I Am The Sun') 64-bit
Writing library : libebml v1.3.5 + libmatroska v1.4.8
Video
ID : 1
Format : AVC
Format/Info : Advanced Video Codec
Format profile : High@L4.1
Format settings : CABAC / 4 Ref Frames
Format settings, CABAC : Yes
Format settings, Reference frames : 4 frames
Codec ID : V_MPEG4/ISO/AVC
Duration : 1 h 24 min
Bit rate mode : Variable
Bit rate : 30.5 Mb/s
Maximum bit rate : 32.7 Mb/s
Width : 1 920 pixels
Height : 1 080 pixels
Display aspect ratio : 16:9
Frame rate mode : Constant
Frame rate : 23.976 (24000/1001) FPS
Color space : YUV
Chroma subsampling : 4:2:0
Bit depth : 8 bits
Scan type : Progressive
Bits/(Pixel*Frame) : 0.613
Stream size : 18.0 GiB (85%)
Language : English
Default : Yes
Forced : No
Audio #1
ID : 2
Format : AC-3
Format/Info : Audio Coding 3
Commercial name : Dolby Digital
Codec ID : A_AC3
Duration : 1 h 24 min
Bit rate mode : Constant
Bit rate : 640 kb/s
Channel(s) : 6 channels
Channel layout : L R C LFE Ls Rs
Sampling rate : 48.0 kHz
Frame rate : 31.250 FPS (1536 SPF)
Compression mode : Lossy
Stream size : 387 MiB (2%)
Title : Dub BD EUR
Language : Russian
Service kind : Complete Main
Default : Yes
Forced : No
Audio #2
ID : 3
Format : AC-3
Format/Info : Audio Coding 3
Commercial name : Dolby Digital
Codec ID : A_AC3
Duration : 1 h 24 min
Bit rate mode : Constant
Bit rate : 192 kb/s
Channel(s) : 2 channels
Channel layout : L R
Sampling rate : 48.0 kHz
Frame rate : 31.250 FPS (1536 SPF)
Compression mode : Lossy
Stream size : 116 MiB (1%)
Title : MVO HDRezka Studio
Language : Russian
Service kind : Complete Main
Default : No
Forced : No
Audio #3
ID : 4
Format : DTS XLL
Format/Info : Digital Theater Systems
Commercial name : DTS-HD Master Audio
Codec ID : A_DTS
Duration : 1 h 24 min
Bit rate mode : Variable
Bit rate : 4 599 kb/s
Channel(s) : 8 channels
Channel layout : C L R LFE Lb Rb Lss Rss
Sampling rate : 48.0 kHz
Frame rate : 93.750 FPS (512 SPF)
Bit depth : 24 bits
Compression mode : Lossless
Stream size : 2.72 GiB (13%)
Language : English
Default : No
Forced : No
Text #1
ID : 5
Format : UTF-8
Codec ID : S_TEXT/UTF8
Codec ID/Info : UTF-8 Plain Text
Duration : 1 h 17 min
Bit rate : 109 b/s
Count of elements : 1138
Stream size : 62.4 KiB (0%)
Language : Russian
Default : No
Forced : No
Text #2
ID : 6
Format : UTF-8
Codec ID : S_TEXT/UTF8
Codec ID/Info : UTF-8 Plain Text
Duration : 1 h 17 min
Bit rate : 63 b/s
Count of elements : 1137
Stream size : 36.1 KiB (0%)
Language : English
Default : No
Forced : No
Menu
00:00:00.000 : en:00:00:00.000
00:13:22.218 : en:00:13:22.218
00:20:20.219 : en:00:20:20.219
00:27:39.867 : en:00:27:39.867
00:36:38.446 : en:00:36:38.446
00:44:15.528 : en:00:44:15.528
00:51:59.408 : en:00:51:59.408
00:57:39.539 : en:00:57:39.539
01:05:17.038 : en:01:05:17.038
01:14:09.236 : en:01:14:09.236
[cybertorrent.ru].t18992.torrent 
Торрент: Зарегистрирован [ 2020-05-22 18:17 ] · 7E72F1065E8BAB6C084AD623155A19B21F0D8B25

Скачать .torrent

Скачать

107 KB

Статус: проверено
Скачан: 0 раз
Размер: 21,24 GB  ·  Тип торрента
terms.php
Профиль [ЛС]
Показать сообщения:    

Текущее время: 06-Июн 20:47

Часовой пояс: UTC ± 0



Вы не можете начинать темы
Вы не можете отвечать на сообщения
Вы не можете редактировать свои сообщения
Вы не можете удалять свои сообщения
Вы не можете голосовать в опросах
Вы не можете прикреплять файлы к сообщениям
Вы можете скачивать файлы