Статистика раздачи
Нет
 
     
 
 

MAGNAT ®

Пол:
Мужской
Стаж:
1 год 2 месяца
Сообщений:
7952

Лицо со шрамом / Capone
«We all pay for our crimes in the end»
Страна: Канада, США
Студия: BRON Studios, A Band Apart, Addictive Pictures
Жанр: драма, криминал, биография
Год выпуска: 2020
Продолжительность: 01:43:57
Перевод 1: Любительский (многоголосый закадровый) (HDRezka Studio) Присутствует ненормативная лексика!
Перевод 2: Любительский (двухголосый закадровый) (LakeFilms) Присутствует ненормативная лексика!
Субтитры: русские (Forced), английские (Full, SDH)
Оригинальная аудиодорожка: английский
Режиссер: Джош Транк / Josh Trank
В ролях: Том Харди, Линда Карделлини, Ноэль Фишер, Кайл МакЛахлан, Мэтт Диллон, Кэтрин Нардуччи, Джек Лауден, Ал Сапиенза, Тильда Дель Торо, Уэйн Пер, Роуз Бьянко, Мэнни Фахардо, Эдгар Арреола, Дэвид Уочс, Тильда Дель Торо, Джош Транк
Описание: Вернувшись из тюрьмы, Аль Капоне продолжает оставаться предметом пристального внимания ФБР. Ведь при аресте так и не была найдена крупная сумма денег — итог всей криминальной деятельности знаменитого мафиози. По всему дому расставлены жучки, под подозрением каждый член большой семьи Капоне. Удастся ли спецслужбам добиться от теряющего память гангстера информации, где и при каких обстоятельствах он спрятал деньги?
Тип релиза: WEB-DL 1080p | AMAZON
Контейнер: MKV
Видео: MPEG4/AVC, 1920x800, 6835 Kb/s, 23.976 FPS
Аудио 1: 48.0 kHz, АС3, 5.1, 448 Kb/s | RUS | MVO | HDRezka Studio
Аудио 2: 48.0 kHz, АС3, 2.0, 384 Kb/s | RUS | DVO | LakeFilms
Аудио 3: 48.0 kHz, E-AC-3, 5.1, 640 Kb/s | ENG | Original
Формат субтитров: softsub (SRT)

MediaInfo

General
Unique ID : 318468564133332314434268734093692099371 (0xEF96D07C962500C44E9A2D8F2D55DB2B)
Complete name : Capone.2020.1080p.AMZN.WEB-DL.DDP5.1.H.264.RUS.MVO.DVO-NTG.mkv
Format : Matroska
Format version : Version 4
File size : 6.03 GiB
Duration : 1 h 43 min
Overall bit rate : 8 310 kb/s
Movie name : Capone.2020.1080p.AMZN.WEB-DL.DDP5.1.H.264.RUS.MVO.DVO-NTG
Encoded date : UTC 2020-05-17 12:37:48
Writing application : mkvmerge v45.0.0 ('Heaven in Pennies') 64-bit
Writing library : libebml v1.3.10 + libmatroska v1.5.2
Cover : Yes
Attachments : cover.png
Video
ID : 1
Format : AVC
Format/Info : Advanced Video Codec
Format profile : High@L4
Format settings : CABAC / 4 Ref Frames
Format settings, CABAC : Yes
Format settings, Reference fra : 4 frames
Codec ID : V_MPEG4/ISO/AVC
Duration : 1 h 43 min
Bit rate mode : Constant
Bit rate : 6 835 kb/s
Nominal bit rate : 10 000 kb/s
Width : 1 920 pixels
Height : 800 pixels
Display aspect ratio : 2.40:1
Frame rate mode : Constant
Frame rate : 23.976 (24000/1001) FPS
Color space : YUV
Chroma subsampling : 4:2:0
Bit depth : 8 bits
Scan type : Progressive
Bits/(Pixel*Frame) : 0.186
Stream size : 4.96 GiB (82%)
Title : Amazon
Language : English
Default : Yes
Forced : No
Color range : Limited
Color primaries : BT.709
Transfer characteristics : BT.709
Matrix coefficients : BT.709
Audio #1
ID : 2
Format : AC-3
Format/Info : Audio Coding 3
Commercial name : Dolby Digital
Codec ID : A_AC3
Duration : 1 h 43 min
Bit rate mode : Constant
Bit rate : 448 kb/s
Channel(s) : 6 channels
Channel layout : L R C LFE Ls Rs
Sampling rate : 48.0 kHz
Frame rate : 31.250 FPS (1536 SPF)
Compression mode : Lossy
Stream size : 333 MiB (5%)
Title : MVO - HDRezka Studio
Language : Russian
Service kind : Complete Main
Default : Yes
Forced : No
Audio #2
ID : 3
Format : AC-3
Format/Info : Audio Coding 3
Commercial name : Dolby Digital
Codec ID : A_AC3
Duration : 1 h 43 min
Bit rate mode : Constant
Bit rate : 384 kb/s
Channel(s) : 2 channels
Channel layout : L R
Sampling rate : 48.0 kHz
Frame rate : 31.250 FPS (1536 SPF)
Compression mode : Lossy
Stream size : 286 MiB (5%)
Title : DVO - LakeFilms
Language : Russian
Service kind : Complete Main
Default : No
Forced : No
Audio #3
ID : 4
Format : E-AC-3
Format/Info : Enhanced AC-3
Commercial name : Dolby Digital Plus
Codec ID : A_EAC3
Duration : 1 h 43 min
Bit rate mode : Constant
Bit rate : 640 kb/s
Channel(s) : 6 channels
Channel layout : L R C LFE Ls Rs
Sampling rate : 48.0 kHz
Frame rate : 31.250 FPS (1536 SPF)
Compression mode : Lossy
Stream size : 476 MiB (8%)
Title : Original
Language : English
Service kind : Complete Main
Default : No
Forced : No
Text #1
ID : 5
Format : UTF-8
Codec ID : S_TEXT/UTF8
Codec ID/Info : UTF-8 Plain Text
Duration : 1 h 38 min
Bit rate : 2 b/s
Count of elements : 35
Stream size : 1.66 KiB (0%)
Title : Forced
Language : Russian
Default : Yes
Forced : No
Text #2
ID : 6
Format : UTF-8
Codec ID : S_TEXT/UTF8
Codec ID/Info : UTF-8 Plain Text
Duration : 1 h 33 min
Bit rate : 39 b/s
Count of elements : 1182
Stream size : 27.1 KiB (0%)
Title : Full
Language : English
Default : No
Forced : No
Text #3
ID : 7
Format : UTF-8
Codec ID : S_TEXT/UTF8
Codec ID/Info : UTF-8 Plain Text
Duration : 1 h 35 min
Bit rate : 42 b/s
Count of elements : 1402
Stream size : 29.9 KiB (0%)
Title : SDH
Language : English
Default : No
Forced : No

Скриншоты

Профиль [ЛС]
Показать сообщения:    

Текущее время: 06-Июн 21:27

Часовой пояс: UTC ± 0



Вы не можете начинать темы
Вы не можете отвечать на сообщения
Вы не можете редактировать свои сообщения
Вы не можете удалять свои сообщения
Вы не можете голосовать в опросах
Вы не можете прикреплять файлы к сообщениям
Вы не можете скачивать файлы