Статистика раздачи
Размер:  3,19 GB   |    Зарегистрирован:  10 дней   |    Скачан:  0 раз
DL-List: Нет

Полного источника не было: Никогда

 
     
 
 

MAGNAT ®

Пол:
Мужской
Стаж:
1 год 2 месяца
Сообщений:
7949

Я, Анна / I, Anna
Страна: Великобритания, Франция, Германия
Жанр: триллер, драма
Год выпуска: 2012
Продолжительность: 01:27:29
Перевод: Профессиональный (двухголосый закадровый) Игмар
Субтитры: русские, английские
Оригинальная аудиодорожка: английский
Режиссер: Барнеби Саузкомби / Barnaby Southcombe
В ролях: Шарлотта Рэмплинг, Гэбриел Бирн, Эдди Марсан, Джоди Мэй, Ральф Браун, Макс Дикон, Онор Блэкман, Хейли Этвелл, Кэролайн Катц, Брайан Дик
Описание: Анна Уэллс живет в маленькой квартирке в Лондоне. Она уже не молода, но все еще достаточно привлекательна. Время от времени она посещает клубы знакомств и однажды случайно знакомится с мужчиной, с которым уходит домой. После этого свидания она попадает в поле зрения полицейского детектива, расследующего жестокое убийство, случившееся в том же многоэтажном здании, где героиню видели на следующее утро.
Тип релиза: WEB-DL 1080p
Контейнер: MKV
Видео: AVC, 1920x1080, 16:9, 25.000 fps, 4580 kbps
Аудио 1: AC3 Dolby Digital, 48 kHz, 192Kbps, 2/0 ch, Russian DVO
Аудио 2: AC3 Dolby Digital, 48 kHz, 448 kbps, 3/2 (L,C,R,l,r) + LFE ch, English
Формат субтитров: softsub (SRT)

MediaInfo

Общее
Уникальный идентификатор : 324316520902094406783169323807739149745 (0xF3FD17041C7D414528FA00ABBEEAFDB1)
Полное имя : F:\Downloads\I.Anna.2012.WEB-DL.1080p.mkv
Формат : Matroska
Версия формата : Version 4
Размер файла : 3,19 Гбайт
Продолжительность : 1 ч. 27 м.
Общий поток : 5220 Кбит/сек
Дата кодирования : UTC 2020-05-14 21:57:17
Программа кодирования : mkvmerge v36.0.0 ('Is That Jazz?') 64-bit
Библиотека кодирования : libebml v1.3.9 + libmatroska v1.5.2
Видео
Идентификатор : 1
Формат : AVC
Формат/Информация : Advanced Video Codec
Профиль формата : High@L4
Настройки формата : CABAC / 4 Ref Frames
Параметр CABAC формата : Да
Параметр RefFrames формата : 4 кадра
Идентификатор кодека : V_MPEG4/ISO/AVC
Продолжительность : 1 ч. 27 м.
Битрейт : 4580 Кбит/сек
Ширина : 1920 пикселей
Высота : 1080 пикселей
Соотношение сторон : 16:9
Режим частоты кадров : Постоянный
Частота кадров : 25,000 кадров/сек
Цветовое пространство : YUV
Субдискретизация насыщенности : 4:2:0
Битовая глубина : 8 бит
Тип развёртки : Прогрессивная
Бит/(Пиксели*Кадры) : 0.088
Размер потока : 2,80 Гбайт (88%)
Default : Да
Forced : Нет
Цветовой диапазон : Limited
Основные цвета : BT.709
Характеристики трансфера : BT.709
Коэффициенты матрицы : BT.709
Аудио #1
Идентификатор : 2
Формат : AC-3
Формат/Информация : Audio Coding 3
Коммерческое название : Dolby Digital
Идентификатор кодека : A_AC3
Продолжительность : 1 ч. 27 м.
Вид битрейта : Постоянный
Битрейт : 192 Кбит/сек
Каналы : 2 канала
ChannelLayout : L R
Частота : 48,0 КГц
Частота кадров : 31,250 кадров/сек (1536 SPF)
Метод сжатия : С потерями
Размер потока : 120 Мбайт (4%)
Язык : Russian
ServiceKind/String : Complete Main
Default : Да
Forced : Нет
Аудио #2
Идентификатор : 3
Формат : AC-3
Формат/Информация : Audio Coding 3
Коммерческое название : Dolby Digital
Идентификатор кодека : A_AC3
Продолжительность : 1 ч. 27 м.
Вид битрейта : Постоянный
Битрейт : 448 Кбит/сек
Каналы : 6 каналов
ChannelLayout : L R C LFE Ls Rs
Частота : 48,0 КГц
Частота кадров : 31,250 кадров/сек (1536 SPF)
Метод сжатия : С потерями
Размер потока : 280 Мбайт (9%)
Язык : English
ServiceKind/String : Complete Main
Default : Нет
Forced : Нет
Текст #1
Идентификатор : 4
Формат : UTF-8
Идентификатор кодека : S_TEXT/UTF8
Идентификатор кодека/Информация : UTF-8 Plain Text
Продолжительность : 1 ч. 23 м.
Битрейт : 50 бит/сек
ElementCount : 584
Размер потока : 30,9 Кбайт (0%)
Язык : Russian
Default : Нет
Forced : Нет
Текст #2
Идентификатор : 5
Формат : UTF-8
Идентификатор кодека : S_TEXT/UTF8
Идентификатор кодека/Информация : UTF-8 Plain Text
Продолжительность : 1 ч. 22 м.
Битрейт : 27 бит/сек
ElementCount : 458
Размер потока : 16,7 Кбайт (0%)
Язык : English
Default : Нет
Forced : Нет
Меню
00:00:00.000 : en:Chapter 1
00:03:25.890 : en:Chapter 2
00:09:52.290 : en:Chapter 3
00:18:34.050 : en:Chapter 4
00:28:47.490 : en:Chapter 5
00:38:40.290 : en:Chapter 6
00:49:17.730 : en:Chapter 7
01:00:11.970 : en:Chapter 8
01:08:59.010 : en:Chapter 9
01:20:11.490 : en:Chapter 10

Скриншоты

[cybertorrent.ru].t18997.torrent 
Торрент: Зарегистрирован [ 2020-05-22 18:20 ] · 5CE379CF7BF9A1D622AB26E6F7EE9E45B388CC30

Скачать .torrent

Скачать

16 KB

Статус: проверено
Скачан: 0 раз
Размер: 3,19 GB  ·  Тип торрента
terms.php
Профиль [ЛС]
Показать сообщения:    

Текущее время: 02-Июн 17:56

Часовой пояс: UTC ± 0



Вы не можете начинать темы
Вы не можете отвечать на сообщения
Вы не можете редактировать свои сообщения
Вы не можете удалять свои сообщения
Вы не можете голосовать в опросах
Вы не можете прикреплять файлы к сообщениям
Вы можете скачивать файлы