Статистика раздачи
Нет
 
     
 
 

MAGNAT ®

Пол:
Мужской
Стаж:
1 год 2 месяца
Сообщений:
7949

Кукла 2: Брамс / Brahms: The Boy II
Страна: США, Китай, Канада, Австралия
Жанр: ужасы, триллер, драма, детектив
Год выпуска: 2020
Продолжительность: 01:27:00-Перевод: Профессиональный (дублированный) iTunes
Субтитры: английские
Оригинальная аудиодорожка: английский-Режиссер: Уильям Брент Белл / William Brent Bell-В ролях: Кэти Холмс, Овайн Йомэн, Кристофер Конвери, Ралф Айнесон, Анджали Джай, Оливер Райс, Натали Ривалин, Дафна Хоскинс, Джоэли Коллинз, Элли Кинг
Описание: 9-летний Джуд стал свидетелем нападения на маму грабителей, которые залезли в их дом, и с тех пор перестал разговаривать. Пытаясь помочь ребёнку, родители решают переехать за город, и их выбор падает на старинный особняк Хилшир. Неподалёку в лесу Джуд откапывает странную куклу практически ростом с него самого. Мальчик не расстаётся с новым «другом» по имени Брамс и вскоре идёт на поправку. Родители очень рады, ведь они не подозревают, чем обернется эта зловещая дружба.-Тип релиза: BDRemux 1080p
Контейнер: MKV-Видео: 1920x1080p (16:9), 23,976 fps, AVC MPEG-4 (x264), High@L4.1, ~ 34911 kbps, 0.702 bit/pixel-Аудио 1: Russian: 48 kHz, AC3, 3/2 (L,C,R,l,r) + LFE ch, ~384 kbps avg / 16-bit
Аудио 2: English: 48 kHz/24-bit, DTS-HD MA 5.1 , ~3334 kbps avg (DTS Core: 5.1 / 48 kHz / 1509 kbps / 24-bit)

MediaInfo

Общее
Уникальный идентификатор : 160061951312290465530634481909477408071 (0x786ACF7CDBC551B50F73624A2E77FD47)
Полное имя : D:\Brahms.The.Boy.2.2020.Remux.1080p.mkv
Формат : Matroska
Версия формата : Version 4 / Version 2
Размер файла : 23,5 Гбайт
Продолжительность : 1 ч. 27 м.
Режим общего битрейта : Переменный
Общий поток : 38,6 Мбит/сек
Дата кодирования : UTC 2020-05-12 07:21:54
Программа кодирования : mkvmerge v37.0.0 ('Leave It') 64-bit
Библиотека кодирования : libebml v1.3.9 + libmatroska v1.5.2
Видео
Идентификатор : 1
Формат : AVC
Формат/Информация : Advanced Video Codec
Профиль формата : High@L4.1
Параметр CABAC формата : Да
Параметр RefFrames формата : 4 кадра
Параметр GOP формата : M=3, N=12
Идентификатор кодека : V_MPEG4/ISO/AVC
Продолжительность : 1 ч. 27 м.
Вид битрейта : Переменный
Битрейт : 34,9 Мбит/сек
Максимальный битрейт : 37,0 Мбит/сек
Ширина : 1920 пикселей
Высота : 1080 пикселей
Соотношение сторон : 16:9
Режим частоты кадров : Постоянный
Частота кадров : 23,976 (24000/1001) кадра/сек
Цветовое пространство : YUV
Субдискретизация насыщенности : 4:2:0
Битовая глубина : 8 бит
Тип развёртки : Прогрессивная
Бит/(Пиксели*Кадры) : 0.702
Размер потока : 21,2 Гбайт (90%)
Язык : English
Default : Да
Forced : Нет
Аудио #1
Идентификатор : 2
Формат : AC-3
Формат/Информация : Audio Coding 3
Параметр Endianness формата : Big
Идентификатор кодека : A_AC3
Продолжительность : 1 ч. 27 м.
Вид битрейта : Постоянный
Битрейт : 384 Кбит/сек
Каналы : 6 каналов
Расположение каналов : Front: L C R, Side: L R, LFE
Частота : 48,0 КГц
Частота кадров : 31,250 кадров/сек (1536 SPF)
Битовая глубина : 16 бит
Метод сжатия : С потерями
Размер потока : 239 Мбайт (1%)
Заголовок : DUB
Язык : Russian
ServiceKind/String : Complete Main
Default : Да
Forced : Нет
Аудио #2
Идентификатор : 3
Формат : DTS
Формат/Информация : Digital Theater Systems
Профиль формата : MA / Core
Режим : 16
Параметр Endianness формата : Big
Идентификатор кодека : A_DTS
Продолжительность : 1 ч. 27 м.
Вид битрейта : Переменный / Постоянный
Битрейт : 3334 Кбит/сек / 1509 Кбит/сек
Каналы : 6 каналов
Расположение каналов : Front: L C R, Side: L R, LFE
Частота : 48,0 КГц
Частота кадров : 93,750 кадра/сек (512 SPF)
Битовая глубина : 24 бит
Метод сжатия : Без потерь / Lossy
Размер потока : 2,03 Гбайт (9%)
Заголовок : Original
Язык : English
Default : Нет
Forced : Нет
Текст #1
Идентификатор : 4
Формат : UTF-8
Идентификатор кодека : S_TEXT/UTF8
Идентификатор кодека/Информация : UTF-8 Plain Text
Продолжительность : 1 ч. 18 м.
Битрейт : 41 бит/сек
ElementCount : 865
Размер потока : 24,0 Кбайт (0%)
Заголовок : Full
Язык : English
Default : Нет
Forced : Нет
Текст #2
Идентификатор : 5
Формат : UTF-8
Идентификатор кодека : S_TEXT/UTF8
Идентификатор кодека/Информация : UTF-8 Plain Text
Продолжительность : 1 ч. 18 м.
Битрейт : 46 бит/сек
ElementCount : 972
Размер потока : 26,7 Кбайт (0%)
Заголовок : SDH
Язык : English
Default : Нет
Forced : Нет
Меню
00:00:00.000 : :Chapter 1
00:04:12.460 : :Chapter 2
00:10:29.128 : :Chapter 3
00:15:08.991 : :Chapter 4
00:19:32.838 : :Chapter 5
00:25:38.829 : :Chapter 6
00:30:39.045 : :Chapter 7
00:34:11.174 : :Chapter 8
00:39:19.106 : :Chapter 9
00:43:00.286 : :Chapter 10
00:46:27.659 : :Chapter 11
00:48:32.910 : :Chapter 12
00:54:01.404 : :Chapter 13
00:57:54.846 : :Chapter 14
01:03:06.491 : :Chapter 15
01:08:23.099 : :Chapter 16
01:11:29.034 : :Chapter 17
01:15:44.665 : :Chapter 18
01:18:13.897 : :Chapter 19
01:20:20.607 : :Chapter 20

Скриншоты

Профиль [ЛС]
Показать сообщения:    

Текущее время: 02-Июн 17:13

Часовой пояс: UTC ± 0



Вы не можете начинать темы
Вы не можете отвечать на сообщения
Вы не можете редактировать свои сообщения
Вы не можете удалять свои сообщения
Вы не можете голосовать в опросах
Вы не можете прикреплять файлы к сообщениям
Вы не можете скачивать файлы