Статистика раздачи
Размер:  43,62 GB   |    Зарегистрирован:  7 месяцев 7 дней   |    Скачан:  0 раз

Полного источника не было: Никогда

 
   
 
 

android ®

Пол:
Не указан
Стаж:
7 месяцев 8 дней
Сообщений:
79

Черепашки Ниндзя / Nickelodeon Teenage Mutant Ninja Turtles
Страна: США
Жанр: Приключения, Комедия, Фантастика
Продолжительность: ~00:22:00
Год выпуска: 2012-2013
Перевод: Профессиональный (дублированный) + Оригинал
Русские субтитры: нет
Режиссёр: Майкл Чанг / Michael Chang
Описание: Лео, Раф, Майки и Донни – черепашки-мутанты, научившиеся боевому искусству ниндзюцу у своего сэнсэя Учителя Сплинтера. Выбравшись из канализации на улицы Нью-Йорка, братья оказываются в бурлящем жизнью мегаполисе. Здесь им придется неустанно противостоять самым кровожадным злодеям в истории человечества. В свободное от схваток время ребята занимаются своим любимым делом – дурачатся и едят восхитительную сочную пиццу!
Сражаясь с мастером Шреддером, мерзким инопланетянином Крэнгом и толпами свехмощных мутантов, черепашки учатся стоять друг за друга стеной, чтобы стать теми, кем им предписано быть судьбой – отважными и благородными героями!

Список серий:

1 сезон


01. Черепашки выходят на поверхность. Часть 1 / Rise of the Turtles. Part 1
02. Черепашки выходят на поверхность. Часть 2 / Rise of the Turtles. Part 2
03. Черепаший нрав / Turtle Temper
04. Новый друг, старый враг / New Friend, Old Enemy
05. Кажется, его зовут Бакстер Стокман / I Think His Name is Baxter Stockman
06. Металлическая голова / Metalhead
07. Обезьяньи мозги / Monkey Brains
08. Никогда не говори Ксевер / Never Say Xever
09. Перчатка / The Gauntlet
10. Паника в канализации / Panic in the Sewers
11. Атака маузеров / Mousers Attack!
12. Он пришёл из глубин / It Came From the Depths
13. Я - монстр / I, Monster
14. Новая девчонка в городе / New Girl in Town
15. Инопланетный план / The Alien Agenda
16. Пульверизатор / The Pulverizer
17. ИТКИ / TCRI
18. Таракан-терминатор / Cockroach Terminator
19. Гамбит Бакстера / Baxter's Gambit
20. Враг моего врага / Enemy of My Enemy
21. Месть Караи / Karai's Vendetta
22. Возвращение Пульверизатора / Pulverizer Returns!
23. Паразиты / Parasitica
24. Операция: Освобождение / Operation: Break Out
25. Решающее сражение. Часть 1 / Showdown. Part 1
26. Решающее сражение. Часть 2 / Showdown. Part 2
-2 сезон

01. Новые мутации / The Mutation Situation
02. Нашествие белканоидов / Invasion of the Squirrelanoids
03. Следуй за лидером / Follow the Leader
04. Мутагеноид на свободе / Mutagen Man Unleashed
05. Микки в прыщах / Mikey Gets Shellacne

06. Цель: Эйприл О'Нил / Target: April O'Neil
07. Круши и ломай / Slash and Destroy
08. Хороший, плохой и Кейси Джонс / The Good, the Bad and Casey Jones
09. Заговор крэнгов / The Kraang Conspiracy

10. Гриб-гигант / Fungus Humungous
11. Апгрейд Железной головы / Metalhead Rewired
12. О крысах и людях / Of Rats and Men

13. Манхэттенский проект. Часть 1 / The Manhattan Project. Part 1
14. Манхэттенский проект. Часть 2 / The Manhattan Project. Part 2

15. Лабиринты и мутанты / Mazes & Mutants
16. Одинокая мутация Бакстера Стокмана / The Lonely Mutation of Baxter Stockman
17. Нейтритон / Newtralized!
18. Пиццалиций / Pizza Face
19. Гнев Тигриного Когтя / The Wrath of Tiger Claw
20. Легенда о Куро Кабуто / The Legend of the Kuro Kabuto

21. План 10 / Plan 10
22. Моя месть / Vengeance is Mine
23. История о призраке из Чайнатауна / A Chinatown Ghost Story
24. В Измерении Икс / Into Dimension X!
25. Вторжение. Часть 1 / The Invasion. Part 1
26. Вторжение. Часть 2 / The Invasion. Part 2

Ссылка на предыдущие и альтернативные раздачи
Качество: HDTV 1080i
Формат: TS
Видео: MPEG4 Video (H264) 1920x1080 25.00fps ~5 700 Kbps
Аудио 1: Dolby AC3 48000Hz stereo 384kbps Rus
Аудио 2: Dolby AC3 48000Hz stereo 384kbps Eng
Субтитры: отсутствуют

MediaInfo

Код:Общее
Идентификатор : 1 (0x1)
Полное имя : TMNT 2012 [HDTV.1080i]\Season 1\TMNT_2012_Ep.16_HD.ts
Формат : MPEG-TS
Размер файла : 950 Мбайт
Продолжительность : 22 м.
Режим общего битрейта : Переменный
Общий поток : 5901 Кбит/сек
Видео
Идентификатор : 326 (0x146)
Идентификатор меню : 1 (0x1)
Формат : AVC
Формат/Информация : Advanced Video Codec
Профиль формата : High@L4.0
Параметр CABAC формата : Да
Параметр ReFrames формата : 3 кадра
Идентификатор кодека : 27
Продолжительность : 22 м.
Битрейт : 5028 Кбит/сек
Ширина : 1920 пикселей
Высота : 1080 пикселей
Соотношение сторон : 16:9
Частота кадров : 25,000 кадров/сек
Стандарт вещания : Component
Цветовое пространство : YUV
Субдискретизация насыщенности : 4:2:0
Битовая глубина : 8 бит
Тип развёртки : Чересстрочная
Порядок развёртки : Верхнее поле первое
Бит/(Пиксели*Кадры) : 0.097
Размер потока : 809 Мбайт (85%)
Основные цвета : BT.709
Характеристики трансфера : BT.709
Коэффициенты матрицы : BT.709
Аудио #1
Идентификатор : 406 (0x196)
Идентификатор меню : 1 (0x1)
Формат : AC-3
Формат/Информация : Audio Coding 3
Расширение режима : CM (complete main)
Параметр Endianness формата : Big
Идентификатор кодека : 6
Продолжительность : 22 м.
Вид битрейта : Постоянный
Битрейт : 384 Кбит/сек
Каналы : 2 канала
Расположение каналов : Front: L R
Частота : 48,0 КГц
Битовая глубина : 16 бит
Метод сжатия : С потерями
Размер потока : 61,8 Мбайт (7%)
Язык : Russian
Аудио #2
Идентификатор : 416 (0x1A0)
Идентификатор меню : 1 (0x1)
Формат : AC-3
Формат/Информация : Audio Coding 3
Расширение режима : CM (complete main)
Параметр Endianness формата : Big
Идентификатор кодека : 6
Продолжительность : 22 м.
Вид битрейта : Постоянный
Битрейт : 192 Кбит/сек
Каналы : 2 канала
Расположение каналов : Front: L R
Частота : 48,0 КГц
Битовая глубина : 16 бит
Метод сжатия : С потерями
Размер потока : 30,9 Мбайт (3%)
Язык : English

Скриншоты:

- -
-
01.04.2015 обновлена раздача. Добавлен 26 эпизод 2 сезона.
Просьба перекачать торрент.
[cybertorrent.ru].t1903.torrent 
Торрент: Зарегистрирован [ 2018-02-16 08:44 ] · 9D4D7ED00293978E499751E1E2AB919BD1CB1E1E

Скачать .torrent

Скачать

113 KB

Статус: проверено
Скачан: 0 раз
Размер: 43,62 GB
Профиль [ЛС]
Показать сообщения:    

Текущее время: 24-Сен 07:58

Часовой пояс: UTC ± 0



Вы не можете начинать темы
Вы не можете отвечать на сообщения
Вы не можете редактировать свои сообщения
Вы не можете удалять свои сообщения
Вы не можете голосовать в опросах
Вы не можете прикреплять файлы к сообщениям
Вы можете скачивать файлы
Torrents24.ru открытый BitTorrent Torrents24.pl открытый BitTorrent CyberTorrent.ru открытый BitTorrent BtList.ru рейтинг BitTorrent трекеров Яндекс.Метрика