BitTorrent клиенты



Выстрел / На расстоянии выстрела / Dishkiyaoon (Санамджит Сингх Тальвар / Sanamjit Singh Talwar) [2014, Индия, боевик, криминал, триллер, HDRip] MVO (ICG) + Sub Rus

Ответить на тему
 
Автор Сообщение

Alex ®

Пол: Не указан

Стаж: 1 год

Сообщений: 855

Создавать темы 06-Фев-2018 00:58

[Цитировать]

Выстрел / На расстоянии выстрела / Dishkiyaoon Страна: Индия
Жанр: боевик, криминал, триллер
Год выпуска: 2014
Продолжительность: 01:58:43
Перевод: Любительский (многоголосый закадровый) ICG
Субтитры: русские (внешние - на песни и полные)
Оригинальная аудиодорожка: Hindi
Режиссер: Санамджит Сингх Тальвар / Sanamjit Singh Talwar
В ролях: Харман Баведжа, Хэрш Чхая, Санни Деол, Раджит Капур, Аеша Кханна, Прашант Нараянан, Сумит Ниджаван, Адитья Панчоли, Ананд Тивари, Шилпа Шетти
Описание: Вики в юном возрасте потерял мать, а отец не мог дать ему «должного» воспитания, чтобы сын постоял за себя в школе. И тогда Вики нашел местного авторитета, бандита, который дал парнишке совет, что нужно просто дать сдачи. С этого дня «Большой Тони» заменил Вики отца. Он стал его наставником, другом, братом. Но когда в преступном мире идет «игра престолов», никому нельзя доверять. И лишь один выверенный выстрел, способен сделать королями тех, кто еще вчера не мог "выбросить шесть".
Русские субтитры на песни: Rummata- -
Качество видео: HDRip
Формат видео: AVI
Видео: ХvіD 720x304, 2173 Кбит/сек, 24.000 fps
Аудио 1: Русский - AC3 192 Кбит/сек, 2 канала, 48,0 КГц
Аудио 2: Hindi - AC3 192 Кбит/сек, 2 канала, 44,1 КГц
Формат субтитров: softsub (SRT) - русские (на песни и полные)

MediaInfo

Общее
Полное имя : Выстрел. На расстоянии выстрела 2014, Индия, боевик, триллер.avi
Формат : AVI
Формат/Информация : Audio Video Interleave
Профиль формата : OpenDML
Размер файла : 2,13 Гбайт
Продолжительность : 1 ч. 58 м.
Общий поток : 2573 Кбит/сек
Программа кодирования : Lavf57.71.100
Видео
Идентификатор : 0
Формат : MPEG-4 Visual
Профиль формата : Advanced Simple@L5
Настройки формата : BVOP1
Параметр BVOP формата : 1
Параметр QPel формата : Нет
Параметр GMC формата : Без точки перехода
Параметр матрицы формата : Default (MPEG)
Идентификатор кодека : XVID
Идентификатор кодека/Подсказка : XviD
Продолжительность : 1 ч. 58 м.
Битрейт : 2173 Кбит/сек
Ширина : 720 пикселей
Высота : 304 пикселя
Соотношение сторон : 2,35:1
Частота кадров : 24,000 кадра/сек
Цветовое пространство : YUV
Субдискретизация насыщенности : 4:2:0
Битовая глубина : 8 бит
Тип развёртки : Прогрессивная
Метод сжатия : С потерями
Бит/(Пиксели*Кадры) : 0.414
Размер потока : 1,80 Гбайт (84%)
Библиотека кодирования : XviD 64
Аудио #1
Идентификатор : 1
Формат : AC-3
Формат/Информация : Audio Coding 3
Параметр Endianness формата : Big
Идентификатор кодека : 2000
Продолжительность : 1 ч. 58 м.
Вид битрейта : Постоянный
Битрейт : 192 Кбит/сек
Каналы : 2 канала
Расположение каналов : Front: L R
Частота : 48,0 КГц
Частота кадров : 31,250 кадров/сек (1536 SPF)
Битовая глубина : 16 бит
Метод сжатия : С потерями
Размер потока : 163 Мбайт (7%)
Выравнивание : Соединение по промежуткам
Продолжительность промежутка : 32 мс. (0,77 видеокадр)
Заголовок : Russian
ServiceKind/String : Complete Main
Аудио #2
Идентификатор : 2
Формат : AC-3
Формат/Информация : Audio Coding 3
Параметр Endianness формата : Big
Идентификатор кодека : 2000
Продолжительность : 1 ч. 58 м.
Вид битрейта : Постоянный
Битрейт : 192 Кбит/сек
Каналы : 2 канала
Расположение каналов : Front: L R
Частота : 44,1 КГц
Частота кадров : 28,711 кадров/сек (1536 SPF)
Битовая глубина : 16 бит
Метод сжатия : С потерями
Размер потока : 163 Мбайт (7%)
Выравнивание : Соединение по промежуткам
Продолжительность промежутка : 35 мс. (0,84 видеокадр)
Заголовок : Hindi
ServiceKind/String : Complete Main

Скриншот c названием фильма

-Ссылки на мои файлы Раздача
[Профиль] [ЛС]
Показать сообщения:    
Ответить на тему

Текущее время: 20-Фев 00:22

Часовой пояс: UTC + 3



Вы не можете начинать темы
Вы не можете отвечать на сообщения
Вы не можете редактировать свои сообщения
Вы не можете удалять свои сообщения
Вы не можете голосовать в опросах
Вы не можете прикреплять файлы к сообщениям
Вы можете скачивать файлы