Статистика раздачи
Размер:  10,6 GB   |    Зарегистрирован:  7 месяцев 7 дней   |    Скачан:  0 раз

Полного источника не было: Никогда

 
   
 
 

DR_KTO ®

Пол:
Не указан
Стаж:
7 месяцев 8 дней
Сообщений:
105

Симпсоны / The Simpsons- Страна: США
Жанр: Мультсериал, комедия
Продолжительность: 00:22:00 (одной серии)
Год выпуска: 2005-2006
Перевод: Профессиональный (двухголосый закадровый)
Русские субтитры: нет
Режиссёр: Мэтт Гроенинг / Matt Groening, Дэвид Сильверман / David Silverman
Описание: Симпсоны - это мультсериал-пародия на американский уклад жизни. Семейство Симпсонов состоит из пяти членов: папаша Гомер, мать семейства Мардж, их дочери Лиза и Мэгги и несносный подросток Барт. Симпсоны с успехом демонстрируются в США и по всему миру уже 24 года.-Доп. информация: Все серии были записаны лично мной в период июль-август 2012.-Список серий:
01. Bonfire of the Manatees
02. The Girl Who Slept Too Little
03. Milhouse of Sand and Fog
04. Treehouse of Horror XVI
05. Marge's Son Poisoning
06. See Homer Run
07. The Last of the Red Hat Mamas
08. The Italian Bob
09. Simpsons Christmas Stories
10. Homer's Paternity Coot
11. We're on the Road to D'ohwhere
12. My Fair Laddy
13. The Seemingly Never-Ending Story
14. Bart Has Two Mommies
15. Homer Simpson, This Is Your Wife
16. Million Dollar Abie
17. Kiss Kiss, Bang Bangalore
18. The Wettest Stories Ever Told
19. Girls Just Want to Have Sums
20. Regarding Margie
21. The Monkey Suit
22. Marge and Homer Turn a Couple Play-Семпл: нажми сюда
Качество: DVB
Формат: MPEG-PS
Видео кодек: MPEG
Аудио кодек: MPEG Audio Layer 2
Видео: 768x576@720x576 (4:3), 25 fps, MPEG Video, 3 211 Kbps, 0.310 bit/pixel
Аудио: 48 kHz, MPEG Layer 2, 2 ch, 192 kbps
Субтитры: нет

Подробные технические данные

Код:General
Complete name : ...\The.Simpsons.S17.2005-2006.DVB.-blackaskew\The.Simpsons.S17E17.Kiss.Kiss,.Bang.Bangalore.mpg
Format : MPEG-PS
File size : 519 MiB
Duration : 20mn 54s
Overall bit rate mode : Variable
Overall bit rate : 3 472 Kbps
Writing library : (c) 1998-2011 Womble Multimedia, Inc. / MPEG Video Wizard DVD 5.0.1.100 (03/2011) / May 27 2011
Video
ID : 224 (0xE0)
Format : MPEG Video
Format version : Version 2
Format profile : Main@Main
Format settings, BVOP : Yes
Format settings, Matrix : Custom
Format settings, GOP : Variable
Duration : 20mn 54s
Bit rate mode : Variable
Bit rate : 3 211 Kbps
Maximum bit rate : 15.0 Mbps
Width : 720 pixels
Height : 576 pixels
Display aspect ratio : 4:3
Frame rate : 25.000 fps
Standard : PAL
Color space : YUV
Chroma subsampling : 4:2:0
Bit depth : 8 bits
Scan type : Interlaced
Scan order : Top Field First
Compression mode : Lossy
Bits/(Pixel*Frame) : 0.310
Time code of first frame : 00:00:00:00
Time code source : Group of pictures header
Stream size : 480 MiB (92%)
Writing library : (c) 1998-2011 Womble Multimedia, Inc. / MPEG Video Wizard DVD 5.0.1.100 (03/2011) / May 27 2011
Audio
ID : 192 (0xC0)
Format : MPEG Audio
Format version : Version 1
Format profile : Layer 2
Duration : 20mn 54s
Bit rate mode : Constant
Bit rate : 192 Kbps
Channel count : 2 channels
Sampling rate : 48.0 KHz
Compression mode : Lossy
Stream size : 28.7 MiB (6%)
Menu

Скриншоты


История обновлений и изменений

01. 17.06.2014 - добавлены такие серии как
  • 17x14. Bart Has Two Mommies
  • 17x15. Homer Simpson, This Is Your Wife
    02. 26.08.2014 - добавлены такие серии как
  • 17x07. The Last of the Red Hat Mamas
  • 17x08. The Italian Bob
  • 17x09. Simpsons Christmas Stories
  • 17x11. We're on the Road to D'ohwhere
  • 17x19. Girls Just Want to Have Sums
  • 17x21. The Monkey Suit
    03. 18.10.2014 - добавлены такие серии как
  • 17x05. Marge's Son Poisoning
  • 17x12. My Fair Laddy
  • 17x16. Million Dollar Abie
    04. 26.10.2014 - добавлены такие серии как
  • 17x02. The Girl Who Slept Too Little
  • 17x22. Marge and Homer Turn a Couple Play
    05. 23.11.2014 - добавлены такие серии как
  • 17x10. Homer's Paternity Coot
  • 17x13. The Seemingly Never-Ending Story
  • 17x20. Regarding Margie
    06. 16.12.2014 - добавлены такие серии как
  • 17x01. Bonfire of the Manatees
  • 17x04. Treehouse of Horror XVI
  • 17x06. See Homer Run
  • -Ссылка на предыдущие и альтернативные раздачи
    [cybertorrent.ru].t1912.torrent 
    Торрент: Зарегистрирован [ 2018-02-16 08:44 ] · EC5240AE56B697C6856FA6009169AA6D6E295886

    Скачать .torrent

    Скачать

    57 KB

    Статус: проверено
    Скачан: 0 раз
    Размер: 10,6 GB
    Профиль [ЛС]
    Показать сообщения:    

    Текущее время: 23-Сен 12:52

    Часовой пояс: UTC ± 0



    Вы не можете начинать темы
    Вы не можете отвечать на сообщения
    Вы не можете редактировать свои сообщения
    Вы не можете удалять свои сообщения
    Вы не можете голосовать в опросах
    Вы не можете прикреплять файлы к сообщениям
    Вы можете скачивать файлы
    Torrents24.ru открытый BitTorrent Torrents24.pl открытый BitTorrent CyberTorrent.ru открытый BitTorrent BtList.ru рейтинг BitTorrent трекеров Яндекс.Метрика