Статистика раздачи
Размер:  5,82 GB   |    Зарегистрирован:  7 месяцев 7 дней   |    Скачан:  0 раз

Полного источника не было: Никогда

 
   
 
 

irkutsk ®

Пол:
Не указан
Стаж:
7 месяцев 8 дней
Сообщений:
620

Южный Парк / South Park-
  • Страна: США
  • Жанр: ситком, чёрный юмор, сатира, комедия абсурда
  • Продолжительность: ~00:22:00 (одной серии)
  • Год выпуска: 2013
  • Перевод:
  • профессиональный (двухголосый, закадровый) - Paramount Comedy
  • профессиональный (многоголосый, закадровый) - VO-production (1-3 серии)
  • профессиональный (двухголосый, закадровый) - Кубик в Кубе
  • профессиональный (одноголосый, закадровый) - L0cDoG
  • Русские субтитры: есть - yazzzzzva
    -
  • Режиссёр: Мэтт Стоун, Трей Паркер
  • Роли озвучивали: Мэтт Стоун, Трей Паркер, Айзек Хейз, Мэри Бергман, Элиза Шнайдер, Мона Маршалл, Эйприл Стюарт, Джон Хэнсен, Дженнифер Хауэлл, Эдриен Бирд
    -
  • Описание:
  • «Южный парк» (англ. South Park, МФА: [saʊθ pɑːɹk]) — американский мультсериал, который создают Трей Паркер и Мэтт Стоун. Второй по длительности анимационный сериал в истории американского телевидения после сериала «Симпсоны». Иногда название употребляется в непереведённом виде как «Саут-Парк» или «Саус-Парк». Выпускается кабельным телеканалом Comedy Central с 1997 года. Основу сюжета составляют приключения четырёх мальчиков и их друзей, живущих в маленьком городке Саут-Парк, штат Колорадо. Сериал высмеивает недостатки американской культуры и текущие мировые события, а также подвергает критике множество глубоких убеждений и табу посредством пародии и чёрного юмора. «Южный парк» выходит поздно вечером и позиционируется как мультфильм для взрослых.
  • Шоу славится своим освещением текущих мировых событий. Работа над каждой серией ведётся в два этапа: на первом авторы придумывают общую концепцию и сюжет, а на втором — менее чем за неделю до премьерного показа — дорабатывают их деталями, что позволяет быстро реагировать на новости.
  • На настоящий момент в эфир вышло уже 17 сезонов мультсериала. Начиная с восьмого, все последующие сезоны шоу выходят в два этапа: половина весной и половина осенью, с перерывом на лето. На данный момент контракт создателей сериала продлён до 2016 года, то есть после 15-го выйдет ещё как минимум два сезона, на которые был изначально продлён сериал, а потом ещё три сезона, на которые сериал был продлён в ноябре 2011 года.
  • В России показ сериала проходит на телеканалах «2x2» и Paramount Comedy. Первые два сезона и полнометражный фильм перевёл Дмитрий «Goblin» Пучков. Впервые демонстрацию сериала в России начал канал Ren-TV, где он изначально выходил под названием «Стрёмный городок Cаус Парк» — для этих серий была выполнена профессиональная озвучка по заказу канала, текст читали актёры: Александр Клюквин и Людмила Гнилова, позже в MTV-озвучке «Южного парка» дуэтом работали «голоса канала» — Евгений Рыбов и Мария Трындяйкина.
    -
  • Релиз: eugeen
  • Отдельное спасибо: Bugman и ZIP_sq
    -
  • Ссылка на предыдущие и альтернативные раздачи
  • Семпл
    -
  • Качество: WEB-DL 720p
  • Формат: MKV
  • Видео: AVC, 1280x718 (16:9), 23.976 fps
  • Аудио:
  • AC-3, 48.0 KHz, 2 ch, 192 Kbps, CBR (Russian: Paramount Comedy)
  • AC-3, 48.0 KHz, 2 ch, 256 Kbps, CBR (Russian: VO-production (1-3 серии))
  • AC-3, 48.0 KHz, 2 ch, 192 Kbps, CBR (Russian: Kubik v Kube)
  • AC-3, 48.0 KHz, 2 ch, 192 Kbps, CBR (Russian: L0cDoG)
  • AAC LC, 48.0 KHz, 2 ch (English)
  • Субтитры:
  • UTF-8 (Russian: yazzzzzva)
  • UTF-8 (English)

    Список серий

  • 01. Да хранит тебя правительство / Let Go, Let Gov
  • 02. Познавательная снафф-порнуха / Informative Murder Porn
  • 03. Война Миров Зиммерман / World War Zimmerman
  • 04. Дети Готы 3: Рассвет позеров / Goth Kids 3: Dawn of the Posers
  • 05. Приручая киску / Taming Strange
  • 06. Рыжая корова Ginger Cow
  • 07. Черная пятница / Black Friday
  • 08. Песнь зада и пламени / A Song of Ass and Fire
  • 09. Сиськи и драконы / Titties and Dragons
  • 10. Хоббит / The Hobbit
  • Подробные технические данные

    General
    Unique ID : 202571748578282933869959883462600767368 (0x9865E64F4A69FD81964CB4902BAB3788)
    Complete name : C:\Users\Сергей\Downloads\South Park. Season 17 (2013) - WEB-DL 720p\01 (238). Let Go, Let Gov.mkv
    Format : Matroska
    Format version : Version 4 / Version 2
    File size : 555 MiB
    Duration : 22mn 10s
    Overall bit rate : 3 501 Kbps
    Encoded date : UTC 2013-12-11 10:58:04
    Writing application : mkvmerge v6.6.0 ('The Edge Of The In Between') built on Dec 1 2013 17:55:00
    Writing library : libebml v1.3.0 + libmatroska v1.4.1
    Video
    ID : 1
    Format : AVC
    Format/Info : Advanced Video Codec
    Format profile : High@L3.1
    Format settings, CABAC : No
    Format settings, ReFrames : 2 frames
    Codec ID : V_MPEG4/ISO/AVC
    Duration : 22mn 10s
    Width : 1 280 pixels
    Height : 718 pixels
    Display aspect ratio : 16:9
    Frame rate mode : Constant
    Frame rate : 23.976 fps
    Color space : YUV
    Chroma subsampling : 4:2:0
    Bit depth : 8 bits
    Scan type : Progressive
    Language : English
    Default : Yes
    Forced : No
    Color primaries : BT.709
    Transfer characteristics : BT.709
    Matrix coefficients : BT.709
    Audio #1
    ID : 2
    Format : AC-3
    Format/Info : Audio Coding 3
    Mode extension : CM (complete main)
    Format settings, Endianness : Big
    Codec ID : A_AC3
    Duration : 22mn 10s
    Bit rate mode : Constant
    Bit rate : 192 Kbps
    Channel(s) : 2 channels
    Channel positions : Front: L R
    Sampling rate : 48.0 KHz
    Bit depth : 16 bits
    Compression mode : Lossy
    Stream size : 30.4 MiB (5%)
    Title : (Paramount Comedy)
    Language : Russian
    Default : Yes
    Forced : No
    Audio #2
    ID : 3
    Format : AC-3
    Format/Info : Audio Coding 3
    Mode extension : CM (complete main)
    Format settings, Endianness : Big
    Codec ID : A_AC3
    Duration : 22mn 10s
    Bit rate mode : Constant
    Bit rate : 256 Kbps
    Channel(s) : 2 channels
    Channel positions : Front: L R
    Sampling rate : 48.0 KHz
    Bit depth : 16 bits
    Compression mode : Lossy
    Stream size : 40.6 MiB (7%)
    Title : (VO-Production)
    Language : Russian
    Default : No
    Forced : No
    Audio #3
    ID : 4
    Format : AC-3
    Format/Info : Audio Coding 3
    Mode extension : CM (complete main)
    Format settings, Endianness : Big
    Codec ID : A_AC3
    Duration : 22mn 10s
    Bit rate mode : Constant
    Bit rate : 192 Kbps
    Channel(s) : 2 channels
    Channel positions : Front: L R
    Sampling rate : 48.0 KHz
    Bit depth : 16 bits
    Compression mode : Lossy
    Stream size : 30.4 MiB (5%)
    Title : (Kubik v Kube)
    Language : Russian
    Default : No
    Forced : No
    Audio #4
    ID : 5
    Format : AC-3
    Format/Info : Audio Coding 3
    Mode extension : CM (complete main)
    Format settings, Endianness : Big
    Codec ID : A_AC3
    Duration : 22mn 10s
    Bit rate mode : Constant
    Bit rate : 192 Kbps
    Channel(s) : 2 channels
    Channel positions : Front: L R
    Sampling rate : 48.0 KHz
    Bit depth : 16 bits
    Compression mode : Lossy
    Stream size : 30.4 MiB (5%)
    Title : (Nice-Media)
    Language : Russian
    Default : No
    Forced : No
    Audio #5
    ID : 6
    Format : AAC
    Format/Info : Advanced Audio Codec
    Format profile : LC
    Codec ID : A_AAC
    Duration : 22mn 10s
    Channel(s) : 2 channels
    Channel positions : Front: L R
    Sampling rate : 48.0 KHz
    Compression mode : Lossy
    Title : (Original)
    Language : English
    Default : No
    Forced : No
    Text #1
    ID : 7
    Format : UTF-8
    Codec ID : S_TEXT/UTF8
    Codec ID/Info : UTF-8 Plain Text
    Title : (yazzzzzva)
    Language : Russian
    Default : No
    Forced : No
    Text #2
    ID : 8
    Format : UTF-8
    Codec ID : S_TEXT/UTF8
    Codec ID/Info : UTF-8 Plain Text
    Title : (Comedy Central)
    Language : English
    Default : No
    Forced : No

    Скриншоты


    [cybertorrent.ru].t1920.torrent 
    Торрент: Зарегистрирован [ 2018-02-16 08:44 ] · 707CBAB9A21685DC9FF094C01AD800FC6EF3284A

    Скачать .torrent

    Скачать

    16 KB

    Статус: проверено
    Скачан: 0 раз
    Размер: 5,82 GB
    Профиль [ЛС]
    Показать сообщения:    

    Текущее время: 24-Сен 07:10

    Часовой пояс: UTC ± 0



    Вы не можете начинать темы
    Вы не можете отвечать на сообщения
    Вы не можете редактировать свои сообщения
    Вы не можете удалять свои сообщения
    Вы не можете голосовать в опросах
    Вы не можете прикреплять файлы к сообщениям
    Вы можете скачивать файлы
    Torrents24.ru открытый BitTorrent Torrents24.pl открытый BitTorrent CyberTorrent.ru открытый BitTorrent BtList.ru рейтинг BitTorrent трекеров Яндекс.Метрика