Статистика раздачи
Размер:  13,81 GB   |    Зарегистрирован:  5 месяцев 4 дня   |    Скачан:  0 раз

Полного источника не было: Никогда

Личеров:  1  [  0 KB/s  ]  
 
   
 
 

DR_KTO ®

Пол:
Не указан
Стаж:
5 месяцев 5 дней
Сообщений:
105

В гостях у Деда-Краеведа (Карусель, 78 вып.)
Дата/Год выпуска: 2009-2010
Страна: Россия
Жанр: Детская познавательная передача
Продолжительность: 78 х 12 мин
Перевод: Не требуется
Телеканал: Карусель
Описание: Россия — многонациональная страна, где каждый регион, каждая республика необычайно самобытны. В нашей стране много веков живут и трудятся представители разных народов, и культура каждого из них хранит в себе много интересного. Можно ли обойти всю Россию и познакомиться с бытом каждого народа? Пожалуй, это под силу одному Деду-Краеведу по имени Игнат Матвеевич. Он живет на свете так давно, что смог побывать чуть ли не в каждом городе страны. Сегодня он готов поведать о своих приключениях ведущей программы Маше, а вместе с ней — всем маленьким зрителям. Дед-Краевед расскажет об особенностях природы российских регионов, поделится самыми интересными культурными традициями народностей, у которых он был в гостях. И конечно, в каждой программе — сказка одного из российских этносов.
Доп. информация: Программа получила наивысшую оценку жюри II Всероссийского конкурса СМИ-2009.
Подробнее - http://www.karusel-tv.ru/announce/9286
качество: SATRip
формат: AVI
Видео: 688x544 (4:3), 25 fps, XviD build 64 ~1792 kbps avg, 0.19 bit/pixel
Аудио: 48 kHz, MPEG Layer 3, 2 ch, ~192.00 kbps avg
Ссылка на предыдущие и альтернативные раздачи: http://cybertorrent.ru/tracker.php?nm=%D0%92%20%D0%B3%D0%BE%D1%81%D1%82%D1%8F...0%B5%D0%B4%D0%B0
Релиз:

Список выпусков/серий

Для удобства поиска номера выпусков удалены, выпуски двух сезонов объединены и расположены в алфавитном порядке.
Адыгея, республика.avi
Алтай, республика.avi
Алтайский край.avi
Амурская область.avi
Архангельская область.avi
Астраханская область.avi
Белгородская область.avi
Брянская область.avi
Бурятия, республика.avi
Владимирская область.avi
Волгоградская область.avi
Вологодская область.avi
Воронежская область.avi
Дагестан, республика.avi
Еврейская АО.avi
Забайкальский край.avi
Ивановская область.avi
Ингушетия, республика.avi
Иркутская область.avi
Кабардино-Балкария, республика.avi
Калининградская область.avi
Калмыкия, республика.avi
Калужская область.avi
Камчатский край.avi
Карачаево-Черкесия, республика.avi
Карелия, республика.avi
Кемеровская область.avi
Кировская область.avi
Коми, республика.avi
Костромская область.avi
Краснодарский край.avi
Красноярский край.avi
Курганская область.avi
Курская область.avi
Ленинградская область.avi
Магаданская область.avi
Марий Эл, республика.avi
Мордовия, республика.avi
Москва.avi
Московская область.avi
Мурманская область.avi
Ненецкий АО.avi
Новгородская область.avi
Новосибирская область.avi
Омская область.avi
Оренбургская область.avi
Пензенская область.avi
Пермский край.avi
Приморский край.avi
Псковская область.avi
Ростовская область.avi
Рязанская область.avi
Самарская область.avi
Санкт-Петербург.avi
Саратовская область.avi
Саха (Якутия), республика.avi
Сахалинская область.avi
Свердловская область.avi
Северная Осетия, республика.avi
Смоленская область.avi
Ставропольский край.avi
Тамбовская область.avi
Тверская область.avi
Томская область.avi
Тульская область.avi
Тыва, республика.avi
Тюменская область.avi
Удмуртия, республика.avi
Ульяновская область.avi
Хабаровский край.avi
Хакасия, республика.avi
Ханты-Мансийский АО.avi
Челябинская область.avi
Чечня, республика.avi
Чувашия, республика.avi
Чукотский АО.avi
Ямало-Ненецкий АО.avi
Ярославская область.avi
08.06.2016 добавлены выпуски: Смоленская область и Тыва, республика

MediaInfo

Полное имя : E:\РАЗДАЧИ\У Деда-Краеведа\Дед-Краевед\Адыгея, республика.avi
Формат : AVI
Формат/Информация : Audio Video Interleave
Размер файла : 169 Мбайт
Продолжительность : 11 м.
Общий поток : 1998 Кбит/сек
Программа кодирования : Lavf54.63.100
Видео
Идентификатор : 0
Формат : MPEG-4 Visual
Профиль формата : Simple@L3
Параметр BVOP формата : Нет
Параметр QPel формата : Нет
Параметр GMC формата : Без точки перехода
Параметр матрицы формата : Default (H.263)
Идентификатор кодека : XVID
Идентификатор кодека/Подсказка : XviD
Продолжительность : 11 м.
Битрейт : 1793 Кбит/сек
Ширина : 688 пикселей
Высота : 544 пикселя
Соотношение сторон : 4:3
Частота кадров : 25,000 кадров/сек
Цветовое пространство : YUV
Субдискретизация насыщенности : 4:2:0
Битовая глубина : 8 бит
Тип развёртки : Прогрессивная
Метод сжатия : С потерями
Бит/(Пиксели*Кадры) : 0.192
Размер потока : 152 Мбайт (90%)
Библиотека кодирования : XviD 64
Аудио
Идентификатор : 1
Формат : MPEG Audio
Версия формата : Version 1
Профиль формата : Layer 3
Идентификатор кодека : 55
Идентификатор кодека/Подсказка : MP3
Продолжительность : 11 м.
Вид битрейта : Постоянный
Битрейт : 192 Кбит/сек
Каналы : 2 канала
Частота : 48,0 КГц
Метод сжатия : С потерями
Размер потока : 16,3 Мбайт (10%)
Выравнивание : Соединение по промежуткам
Продолжительность промежутка : 24 мс. (0,60 видеокадр)
Время предзагрузки промежутка : 24 мс.

Скриншоты

[cybertorrent.ru].t1931.torrent 
Торрент: Зарегистрирован [ 2018-02-16 08:44 ] · 998158F3A325A9B5AAA1416DBDE9A27EF5050173

Скачать .torrent

Скачать

75 KB

Статус: проверено
Скачан: 0 раз
Размер: 13,81 GB
Профиль [ЛС]
Показать сообщения:    

Текущее время: 20-Июл 14:22

Часовой пояс: UTC ± 0



Вы не можете начинать темы
Вы не можете отвечать на сообщения
Вы не можете редактировать свои сообщения
Вы не можете удалять свои сообщения
Вы не можете голосовать в опросах
Вы не можете прикреплять файлы к сообщениям
Вы можете скачивать файлы