BitTorrent клиенты



(Hardcore, Techno, Acid, Industrial) Various - Phuture - An Industrial Project - 1994, FLAC (tracks+.cue), lossless

Ответить на тему
Статистика раздачи
Размер:  378 MB   |    Зарегистрирован:  11 месяцев 21 день   |    Скачан:  0 раз

Полного источника не было: Никогда

 
   
 
 
Автор Сообщение

Камилла ®

Пол: Не указан

Стаж: 11 месяцев 23 дня

Сообщений: 450

Создавать темы 28-Фев-2018 16:58

[Цитировать]

Various - Phuture - An Industrial Project
Лейбл: Planet Core Productions;
Каталожный номер: PCP 194;
Источник: CD, Compilation, what.cd;
Жанр: Hardcore, Techno, Acid, Industrial;
Год выпуска диска: 1994;
Производитель диска: Germany;
Аудио кодек: FLAC;
Тип рипа: tracks+.cue;
Битрейт аудио: lossless;
Продолжительность: 52:33;
Трэклист:-01. Program 1 - MF Skulls (3:50)
02. Mescalinum United - Symphonies of Steel Part 1 (4:06)
03. Program 1 - World's hardest MF (4:02)
04. Dusty Angel - Nervous Flight (6:51)
05. 100% Acidiferous - Alarm! (4:45)
06. The Mover - Handicap (5:05)
07. Mescalinum United - Light Bringer (4:58)
08. The Possessed - Human Kick Machine (5:36)
09. The Mover - At the Abyss of Deception (5:57)
10. Dusty Angel - Acid Bitch (7:23)

Отчет EAC

Exact Audio Copy V0.99 prebeta 4 from 23. January 2008
EAC extraction logfile from 30. March 2009, 21:05
Various / Phuture
Used drive : SONY DVD RW DRU-710A Adapter: 0 ID: 1
Read mode : Secure
Utilize accurate stream : Yes
Defeat audio cache : Yes
Make use of C2 pointers : No
Read offset correction : 12
Overread into Lead-In and Lead-Out : No
Fill up missing offset samples with silence : Yes
Delete leading and trailing silent blocks : No
Null samples used in CRC calculations : Yes
Used interface : Native Win32 interface for Win NT & 2000
Gap handling : Appended to previous track
Used output format : User Defined Encoder
Selected bitrate : 128 kBit/s
Quality : High
Add ID3 tag : No
Command line compressor : C:\Program Files\FLAC\flac.exe
Additional command line options : -V -8 -T "artist=%a" -T "title=%t" -T "album=%g" -T "date=%y" -T "tracknumber=%n" -T "genre=%m" %s
TOC of the extracted CD
Track | Start | Length | Start sector | End sector
---------------------------------------------------------
1 | 0:00.00 | 3:50.00 | 0 | 17249
2 | 3:50.00 | 4:06.00 | 17250 | 35699
3 | 7:56.00 | 4:02.00 | 35700 | 53849
4 | 11:58.00 | 6:51.00 | 53850 | 84674
5 | 18:49.00 | 4:45.00 | 84675 | 106049
6 | 23:34.00 | 5:05.00 | 106050 | 128924
7 | 28:39.00 | 4:58.00 | 128925 | 151274
8 | 33:37.00 | 5:36.00 | 151275 | 176474
9 | 39:13.00 | 5:57.00 | 176475 | 203249
10 | 45:10.00 | 7:23.25 | 203250 | 236499
Track 1
Filename E:\Various - Phuture\01 - Program 1 - MF Skulls.wav
Pre-gap length 0:00:02.00
Peak level 98.2 %
Track quality 100.0 %
Test CRC 16920E6E
Copy CRC 16920E6E
Cannot be verified as accurate (confidence 1) [3D669996], AccurateRip returned [36EABE97]
Copy OK
Track 2
Filename E:\Various - Phuture\02 - Mescalinum United - Symphonies of Steel Part 1.wav
Pre-gap length 0:00:01.53
Peak level 99.3 %
Track quality 100.0 %
Test CRC BDA29992
Copy CRC BDA29992
Cannot be verified as accurate (confidence 1) [146C8287], AccurateRip returned [1684AAF6]
Copy OK
Track 3
Filename E:\Various - Phuture\03 - Program 1 - World's hardest MF.wav
Pre-gap length 0:00:01.90
Peak level 98.9 %
Track quality 100.0 %
Test CRC E8BCF48F
Copy CRC E8BCF48F
Cannot be verified as accurate (confidence 1) [253290F5], AccurateRip returned [8CAA85C7]
Copy OK
Track 4
Filename E:\Various - Phuture\04 - Dusty Angel - Nervous Flight.wav
Pre-gap length 0:00:01.50
Peak level 99.6 %
Track quality 100.0 %
Test CRC 9C5DD0E5
Copy CRC 9C5DD0E5
Accurately ripped (confidence 1) [EB8772C3]
Copy OK
Track 5
Filename E:\Various - Phuture\05 - 100% Acidiferous - Alarm!.wav
Pre-gap length 0:00:01.04
Peak level 99.3 %
Track quality 100.0 %
Test CRC 85AE5943
Copy CRC 85AE5943
Accurately ripped (confidence 1) [18722807]
Copy OK
Track 6
Filename E:\Various - Phuture\06 - The Mover - Handicap.wav
Pre-gap length 0:00:01.17
Peak level 98.5 %
Track quality 100.0 %
Test CRC 8D7FBDD2
Copy CRC 8D7FBDD2
Accurately ripped (confidence 1) [2A7FD70E]
Copy OK
Track 7
Filename E:\Various - Phuture\07 - Mescalinum United - Light Bringer.wav
Pre-gap length 0:00:01.60
Peak level 99.3 %
Track quality 100.0 %
Test CRC 54C75568
Copy CRC 54C75568
Accurately ripped (confidence 1) [F6919FF4]
Copy OK
Track 8
Filename E:\Various - Phuture\08 - The Possessed - Human Kick Machine.wav
Pre-gap length 0:00:01.66
Peak level 99.8 %
Track quality 100.0 %
Test CRC 75A5CF21
Copy CRC 75A5CF21
Accurately ripped (confidence 1) [65F05156]
Copy OK
Track 9
Filename E:\Various - Phuture\09 - The Mover - At the Abyss of Deception.wav
Pre-gap length 0:00:01.40
Peak level 99.2 %
Track quality 100.0 %
Test CRC 80CCAC79
Copy CRC 80CCAC79
Accurately ripped (confidence 1) [4C820E55]
Copy OK
Track 10
Filename E:\Various - Phuture\10 - Dusty Angel - Acid Bitch.wav
Pre-gap length 0:00:01.10
Peak level 99.0 %
Track quality 99.9 %
Test CRC FC4C4D1F
Copy CRC FC4C4D1F
Accurately ripped (confidence 1) [60158FC8]
Copy OK
7 track(s) accurately ripped
3 track(s) could not be verified as accurate
Some tracks could not be verified as accurate
No errors occurred
End of status report

fooCDtect.log

fooCDtect - foobar2000 + auCDtect, baralgin.
auCDtect: CD records authenticity detector, version 0.8.2
Copyright (c) 2004 Oleg Berngardt. All rights reserved.
Copyright (c) 2004 Alexander Djourik. All rights reserved.
mode: 0
=======================================================
Track: MF Skulls
Quality: CDDA, 100%
=======================================================
Track: Symphonies of Steel Part 1
Quality: CDDA, 100%
=======================================================
Track: World's hardest MF
Quality: CDDA, 100%
=======================================================
Track: Nervous Flight
Quality: CDDA, 100%
=======================================================
Track: Alarm!
Quality: CDDA, 100%
=======================================================
Track: Handicap
Quality: CDDA, 100%
=======================================================
Track: Light Bringer
Quality: CDDA, 100%
=======================================================
Track: Human Kick Machine
Quality: CDDA, 100%
=======================================================
Track: At the Abyss of Deception
Quality: CDDA, 100%
=======================================================
Track: Acid Bitch
Quality: CDDA, 100%
=======================================================

Spectrogram

MP3 версия
[cybertorrent.ru].t19327.torrent 
Торрент: Зарегистрирован [ 2018-02-28 17:00 ] · 3E45768132F953E6277DFC17CA23685AB42FB64A

Скачать .torrent

Скачать

31 KB

Статус: проверено
Скачан: 0 раз
Размер: 378 MB
terms.php
[Профиль] [ЛС]
Показать сообщения:    
Ответить на тему

Текущее время: 22-Фев 03:21

Часовой пояс: UTC + 3



Вы не можете начинать темы
Вы не можете отвечать на сообщения
Вы не можете редактировать свои сообщения
Вы не можете удалять свои сообщения
Вы не можете голосовать в опросах
Вы не можете прикреплять файлы к сообщениям
Вы можете скачивать файлы