Статистика раздачи
Размер:  16,48 GB   |    Зарегистрирован:  5 месяцев 26 дней   |    Скачан:  0 раз
DL-List: Нет

Полного источника не было: Никогда

 
     
 
 

MAGNAT ®

Пол:
Мужской
Стаж:
1 год 7 месяцев
Сообщений:
9096

Вне времени / Timeless
Год выпуска: 2016-2018
Страна: США
Жанр: драма, криминал
Продолжительность: 0:43:00
Перевод: Профессиональный (многоголосый закадровый) Sony Sci-Fi
Режиссёр: Чарльз Бисон, Нил Маршалл
В ролях: Чад Рук, Эбигейл Спенсер, Мэтт Лантер, Горан Вишнич, Малкольм Баррет, Пэтерсон Джозеф, Сакина Джэффри, Клаудия Дурмит, Мэтт Фрюэр, Гектор Хьюго и др.
Описание: Таинственный преступник крадет секретную машину времени, намереваясь с ее помощью уничтожить Америку, изменив прошлое. На защиту страны встает необычная команда: профессор истории, солдат и ученый. Герои сериала «Вне времени» отправляются на прототипе украденной машины в путешествие во времени, останавливаясь в наиболее критических моментах для страны. Они должны приложить все усилия, чтобы самим не повлиять на ход истории, а также оставаться на шаг впереди опасного злоумышленника. Удастся ли им предотвратить надвигающуюся катастрофу?
Качество: WEB-DLRip
Формат: AVI
Видео: MPEG4, DivX 5, 720x400 (16:9), 23.976 fps, 1 471 Kbps (0.213 bit/pixel)
Аудио: AC-3, 48.0 KHz, 2 ch, 192 Kbps, CBR - русский
Аудио 2: AC-3, 48.0 KHz, 2 ch, 192 Kbps, CBR - английский
Субтитры: нет
Реклама:
нет

MediaInfo

Общее
Полное имя : G:\1x01 - Pilot (Пилотная серия).avi
Формат : AVI
Формат/Информация : Audio Video Interleave
Размер файла : 602 Мбайт
Продолжительность : 45 м. 2 с.
Общий поток : 1869 Кбит/сек
Название фильма : Вне времени. Сезон 1 / Timeless. Season 1 (2016)
Программа кодирования : VirtualDubMod 1.5.10.2 (build 2540/release)
Библиотека кодирования : VirtualDubMod build 2540/release
Авторское право : miha2154
Видео
Идентификатор : 0
Формат : MPEG-4 Visual
Профиль формата : Advanced Simple@L5
Настройки формата : BVOP1 / Custom Matrix
Параметр BVOP формата : 1
Параметр QPel формата : Нет
Параметр GMC формата : Без точки перехода
Параметр матрицы формата : Выборочная
Идентификатор кодека : DX50
Идентификатор кодека/Подсказка : DivX 5
Продолжительность : 45 м. 2 с.
Битрейт : 1471 Кбит/сек
Ширина : 720 пикселей
Высота : 400 пикселей
Соотношение сторон : 16:9
Частота кадров : 23,976 (24000/1001) кадра/сек
Цветовое пространство : YUV
Субдискретизация насыщенности : 4:2:0
Битовая глубина : 8 бит
Тип развёртки : Прогрессивная
Метод сжатия : С потерями
Бит/(Пиксели*Кадры) : 0.213
Размер потока : 474 Мбайт (79%)
Библиотека кодирования : XviD 65
Аудио #1
Идентификатор : 1
Формат : AC-3
Формат/Информация : Audio Coding 3
Коммерческое название : Dolby Digital
Идентификатор кодека : 2000
Продолжительность : 45 м. 2 с.
Вид битрейта : Постоянный
Битрейт : 192 Кбит/сек
Каналы : 2 канала
Channel layout : L R
Частота : 48,0 КГц
Частота кадров : 31,250 кадров/сек (1536 SPF)
Битовая глубина : 16 бит
Метод сжатия : С потерями
Размер потока : 61,9 Мбайт (10%)
Выравнивание : Разделение по промежуткам
Продолжительность промежутка : 42 мс. (1,00 видеокадр)
Время предзагрузки промежутка : 500 мс.
Заголовок : Профессиональный (многоголосый, закадровый) Sony Sci-Fi
ServiceKind/String : Complete Main
Аудио #2
Идентификатор : 2
Формат : AC-3
Формат/Информация : Audio Coding 3
Коммерческое название : Dolby Digital
Идентификатор кодека : 2000
Продолжительность : 45 м. 2 с.
Вид битрейта : Постоянный
Битрейт : 192 Кбит/сек
Каналы : 2 канала
Channel layout : L R
Частота : 48,0 КГц
Частота кадров : 31,250 кадров/сек (1536 SPF)
Битовая глубина : 16 бит
Метод сжатия : С потерями
Размер потока : 61,9 Мбайт (10%)
Выравнивание : Разделение по промежуткам
Продолжительность промежутка : 42 мс. (1,00 видеокадр)
Время предзагрузки промежутка : 500 мс.
Заголовок : Английский
ServiceKind/String : Complete Main

Скриншоты


[cybertorrent.ru].t19483.torrent 
Торрент: Зарегистрирован [ 2020-05-31 12:41 ] · 91D2D706045375F62A45C7C893AFE12869892148

Скачать .torrent

Скачать

86 KB

Статус: проверено
Скачан: 0 раз
Размер: 16,48 GB  ·  Тип торрента
terms.php
Профиль [ЛС]
Показать сообщения:    

Текущее время: 27-Ноя 09:23

Часовой пояс: UTC ± 0



Вы не можете начинать темы
Вы не можете отвечать на сообщения
Вы не можете редактировать свои сообщения
Вы не можете удалять свои сообщения
Вы не можете голосовать в опросах
Вы не можете прикреплять файлы к сообщениям
Вы можете скачивать файлы