Статистика раздачи
Размер:  2,39 GB   |    Зарегистрирован:  5 месяцев 4 дня   |    Скачан:  0 раз

Полного источника не было: Никогда

 
   
 
 

Red ®

Пол:
Не указан
Стаж:
5 месяцев 5 дней
Сообщений:
87

Губка Боб Квадратные Штаны 9 сезон
Страна: США
Жанр: Мультипликация
Продолжительность: 00:11:51
Год выпуска: 2012
Перевод: Профессиональный (дублированный)
Русские субтитры: нет
Режиссёр: Стивен Хилленбург / Stephen Hillenburg
Описание: Кто проживает на дне океана? Спанч Боб Сквэр Пэнтс! Или просто Губка Боб квадратные штаны. Этот мультсериал был снят в студии Никелодеон и появился на экранах в 1999 году и сразу завоевал свое место под солнцем. На данный момент я думаю нет такого человека который бы не знал кто такой Губка Боб. На глубине океана существует город под названием Бикини Боттом там и происходит все действие. Умом губку само собой аниматоры и сценаристы наделять и не думали, живет себе так и живет.
Качество: SATRip
Формат: AVI
Видео: XVID, 720x400, 25 fps, 1700 kbps, 0.235 bit/pixel
Аудио: MP3, 48 kHz, 2 ch, 192 kbps, CBR
Субтитры: отсутствуют
Все раздачи мультсериала
Сэмпл

Внимание! Раздача ведётся путём добавления новых серий

Внимание! Раздача ведётся путём добавления новых серий; при каждом добавлении создаётся новый торрент. Чтобы начать докачку новой серии, пользователям необходимо сделать следующее:
(1) остановить скачивание,
(2) удалить старый торрент у себя из клиента (старые серии удалять не надо),
(3) скачать новый торрент и запустить его у себя в клиенте вместо старого, при этом указать клиенту путь в старую папку куда и должно происходить скачивание новых серий.
Ваш клиент при этом должен произвести хеширование (проверку) старой папки (если не производит сам - помогите ему сделать это), и будет докачивать только те серии которых у вас ещё нет. Старые серии при этом не удаляются, а продолжают раздаваться!
Eсли вы уже удалили старые серии, то предотвратить повторную закачку старых серий можно, сняв галочку в соответствующих местах при запуске нового торрента. По возможности, желательно не удалять старые серии как можно дольше чтобы релизёр не столько продолжал раздавать старые серии, а смог сконцентрироваться на новых.

Список серий

S09E01a - Exstreme Sports / Экстремальные поры
Губка Боб и Патрик решили вступить в высококлассную спортивную команду «Крутые радикалы».
S09E01b - Squirrel Record / Беличьи рекорды
Сэнди намерена побить все мировые рекорды. Губка Боб помогает ей в этом.
S09E02a - Patrick-Мan! / Патрик-мэн!
Патрик думает, что он супергерой и терроризирует Бикини Боттом.
S09E02b - Gary's New Toy / Новая игрушка Гэри
Губка Боб должен принять меры, так как его улитка Гэри зациклилась на его красном мяче.
S09E03a - License to Milkshake / Лицензия на молочный коктейль
Губка Боб узнал, что его лицензия на молочные коктейли истекла. Поэтому он возвращается в академию молочных коктейлей.
S09E03b - Squid Baby / Сквидик
Из-за черепно-мозговой травмы Сквидвард стал малышом. Губка Боб и Патрик стали заботиться о нём.
S09E04a - Little Yellow Book / Жёлтая книжица
Сквидвард находит дневник Губки Боба, читает его вслух перед всеми в Красти Краб, и Губка Боб расстроен.
S09E04b - Bumper to Bumper / Бампер к бамперу
Миссис Пафф пытается найти способ, чтобы Губка Боб сдал экзамен по вождению.
S09E05a - Eek, an Urchin / Морской ёж
Губка Боб находит в Красти Крабе ежа и пытается от него избавиться.
S09E05b - Squid Defense / Защита Сквидварда
Сквидвард хочет учиться карате у Сэнди и Губки Боба.
S09E07ab - It Came From Goo Lagoon / Она пришла из Лагуны Гу
Огромный грязный пузырь появляется на пляже. Весь Бикини Боттом в панике, кроме Планктона. Планктон хочет использовать его в своих коварных планах.
S09E09a - Don't Look Now / Ужастик
Патрик и Губка Боб смотрели фильм ужасов и думают, что злодей из фильма бродит за ними.
S09E09b - Seance Shmeance / Спиритический сеанс
Губка Боб пытается связаться с духами, чтобы получить рецепт давно забытых сэндвичей.
S09E11ab - SpongeBob You're Fired / Губка Боб, ты уволен!
Мистер Крабс хочет сэкономить деньги, поэтому он увольняет Губку Боба.

Подробные технические данные

General
Complete name : D:\S09E01a_Exstreme_Sports.avi
Format : AVI
Format/Info : Audio Video Interleave
File size : 161 MiB
Duration : 11mn 51s
Overall bit rate : 1 896 Kbps
Writing library : VirtualDub build 32507/release
Video
ID : 0
Format : MPEG-4 Visual
Format profile : Advanced Simple@L5
Format settings, BVOP : 2
Format settings, QPel : No
Format settings, GMC : No warppoints
Format settings, Matrix : Default (H.263)
Codec ID : XVID
Codec ID/Hint : XviD
Duration : 11mn 51s
Bit rate : 1 694 Kbps
Width : 720 pixels
Height : 400 pixels
Display aspect ratio : 16:9
Frame rate : 25.000 fps
Color space : YUV
Chroma subsampling : 4:2:0
Bit depth : 8 bits
Scan type : Progressive
Compression mode : Lossy
Bits/(Pixel*Frame) : 0.235
Stream size : 144 MiB (89%)
Writing library : XviD 64
Audio
ID : 1
Format : MPEG Audio
Format version : Version 1
Format profile : Layer 3
Mode : Joint stereo
Mode extension : MS Stereo
Codec ID : 55
Codec ID/Hint : MP3
Duration : 11mn 51s
Bit rate mode : Constant
Bit rate : 192 Kbps
Channel(s) : 2 channels
Sampling rate : 48.0 KHz
Compression mode : Lossy
Stream size : 16.3 MiB (10%)
Alignment : Split accross interleaves
Interleave, duration : 40 ms (1.00 video frame)
Interleave, preload duration : 500 ms

Скриншоты

[cybertorrent.ru].t1957.torrent 
Торрент: Зарегистрирован [ 2018-02-16 08:44 ] · 18FC4FF918843515DEB3EC4828BB9659CB920BC1

Скачать .torrent

Скачать

13 KB

Статус: проверено
Скачан: 0 раз
Размер: 2,39 GB
Профиль [ЛС]
Показать сообщения:    

Текущее время: 20-Июл 14:19

Часовой пояс: UTC ± 0



Вы не можете начинать темы
Вы не можете отвечать на сообщения
Вы не можете редактировать свои сообщения
Вы не можете удалять свои сообщения
Вы не можете голосовать в опросах
Вы не можете прикреплять файлы к сообщениям
Вы можете скачивать файлы