BitTorrent клиенты



(Euro-Disco) Marco Lessentin - Discography (20 CD) - 2009-2016, FLAC (image+.cue) lossless

Ответить на тему
Статистика раздачи
Размер:  4,44 GB   |    Зарегистрирован:  11 месяцев 21 день   |    Скачан:  0 раз

Полного источника не было: Никогда

 
   
 
 
Автор Сообщение

Differеnt ®

Пол: Не указан

Стаж: 1 год

Сообщений: 788

Создавать темы 01-Мар-2018 00:14

[Цитировать]

Marco Lessentin - Discography (20 CD)

Жанр: EuroDisco
Страна-производитель диска: Germany
Год издания диска: 2009-2016
Аудио кодек: FLAC (*.flac)
Тип рипа: image+.cue
Битрейт аудио: lossless
Источник (релизер): Рипы с собственных дисков
Продолжительность: под спойлером в оформлении
Наличие сканов в содержимом раздачи: да
-

Кратко о Marco Lessentin

Marco Lessentin начал свою карьеру в 2008 году, продюссировали его Systems In Blue. Летом 2013 года с помощью своего менеджера Марко запускает свой второй проект, уже с Ронни Дженчем из Fresh Fox. Появляется дуэт Fresh Fox & Marco Lessentin. 7 февраля 2014 года он создает собственный сайт в интернете, а в ноябре 2014 года открывается его собственный интернет-магазин.
Singles:-

2009.Die Größte Weihnachtsmannparade

01.Die GrößteWeihnachtsmannparade (Single Version) (3:19)
02.Die GrößteWeihnachtsmannparade (Karaoke Version) (3:17)

2009.J. Moviestar

01.J. Moviestar (Single Version) (3:41)
02.J. Moviestar (Instrumental Version) (3:38)

2010.Summer '97 (Marco Lessentin feat. Systems In Blue)

01.Summer '97 (Single Version) (3:29)
02.Summer '97 (Instrumental) (3:27)

2010.Die Größte Weihnachtsmannparade (Marco Lessentin feat. Systems In Blue)

01.Die Größte Weihnachtsmannparade (Single Version 2010) (3:29)
02.Die Größte Weihnachtsmannparade (Maxi Christmas Mix) (4:16)
03.Die Größte Weihnachtsmannparade (Karaoke Version) (3:16)

2011.Ein Leben Lang Mit Dir

01.Ein Leben Lang Mit Dir (Single Version) (4:00)
02.Ein Leben Lang Mit Dir (Karaoke Version) (4:00)
03.Ein Leben Lang Mit Dir (Instrumental) (3:58)

2011.Ich Liebe Dich

01.Ich Liebe Dich (Single Version) (3:53)
02.Ich Liebe Dich (Karaoke Version) (3:53)
03.Ich Liebe Dich (Instrumental) (3:51)

2012.Si Si Cheri (Promo)

01.Si Si Cheri (Single Version) (4:12)

2012.Si Si Cheri (3tr)

01.Si Si Cheri (Single Version) (4:13)
02.Si Si Cheri (Karaoke Version) (4:14)
03.Si Si Cheri (Instrumental Version) (4:12)

2012.Si Si Cheri (4tr)

01.Si Si Cheri (Single Version) (4:13)
02.Si Si Cheri (Long - Mix Version) (5:22)
03.Si Si Cheri (Karaoke Version) (4:14)
04.Si Si Cheri (Instrumental Version) (4:12)

2012.Dein Lacheln (Your Smile)

01.Dein Lacheln (Your Smile) (Single Version) (4:42)
02.Dein Lacheln (Your Smile) (Karaoke Version) (4:43)
03.Die Größte Weihnachtsmannparade (Single Version) (3:29)
04.Die Größte Weihnachtsmannparade (Maxi Christmas Mix) (4:16)

2012.White One (Promo)

01.Si Si Cheri (4:13)
02.Ich Liebe Dich (3:52)
03.Ein Leben Lang Mit Dir (3:59)
04.J. Moviestar (3:41)

2013.Black Two (Promo)

01.Dein Lacheln (Your Smile) (4:42)
02.Si Si Cheri (4:13)
03.Ich Liebe Dich (3:53)
04.Ein Leben Lang Mit Dir (4:01)
05.Die Grosste Weihnachtsmannparade (3:32)

2013.Dein Lacheln (Your Smile)

01.Dein Lacheln (Your Smile) (Single Version) (4:42)
02.Dein Lacheln (Your Smile) (Long Version) (5:16)
03.Dein Lacheln (Your Smile) (Karaoke Version) (4:43)
04.Dein Lacheln (Your Smile) (Instrumental Version) (4:43)

2013.Nur Fur Dich Allein - The Sunshine Melody

01.Nur Fur Dich Allein - The Sunshine Melody (Single Version) (4:06)
02.Nur Fur Dich Allein - The Sunshine Melody (Karaoke Version) (4:06)
03.Nur Fur Dich Allein - The Sunshine Melody (Instrumental Version) (4:04)

2013.Nur Fur Dich Allein (The Sunshine Melody) (Promo) (Fresh Fox & Marco Lessentin)

01.Nur Fur Dich Allein (The Sunshine Melody) (Single Version) (4:19)
02.Nur Fur Dich Allein (The Sunshine Melody) (Fresh Fox Maxi Mix) (7:37)
03.Fieber Der Nacht (One Disco Night) (Single Version) (3:41)
04.Fieber Der Nacht (One Disco Night) (Deutsche Single Version) (3:41)
05.Nur Fur Dich Allein (The Sunshine Melody) (Karaoke Version) (4:18)
06.Nur Fur Dich Allein (The Sunshine Melody) (Instrumental Version) (4:19)

2013.Nur Fur Dich Allein (The Sunshine Melody) - Fieber Der Nacht (One Disco Night) (Fresh Fox & Marco Lessentin)

01.Nur Fur Dich Allein (The Sunshine Melody) (4:17)
02.Fieber Der Nacht (One Disco Night) (3:38)

2014.Deine Augen (Fresh Fox & Marco Lessentin)

01.Deine Augen (Single Edit) (4:25)
02.Deine Augen (Fresh Fox Mix) (4:19)
03.Deine Augen (Fresh Fox Maxi Mix) (7:19)
04.Deine Augen (Fresh Fox Instrumental) (4:19)
05.Deine Augen (Brazil Summer Mix) (5:49)
06.Deine Augen (Special Mix) (4:46)

2014.Fieber Der Nacht (Fresh Fox & Marco Lessentin)

01.Fieber Der Nacht (Single Edit) (3:41)
02.Fieber Der Nacht (Fresh Fox Mix) (4:40)
03.Fieber Der Nacht (Fresh Fox Maxi Mix) (6:42)
04.Fieber Der Nacht (Fresh Fox Instrumental) (4:39)
05.Fieber Der Nacht (Saint Tropez Summer Mix) (5:08)

2015.Si Si Cheri (Fresh Fox & Marco Lessentin)

01.Si Si Cheri (Single Edit) (4:25)
02.Si Si Cheri (Extended Mix) (6:47)
03.Si Si Cheri (Discofox Mix) (5:03)
04.Si Si Cheri (Instrumental) (4:24)
Album:

2016.Augenblicke (Fresh Fox & Marco Lessentin)

01.Nur Fur Dich Allein (4:17)
02.Fieber Der Nacht (3:39)
03.Dein Lacheln (4:44)
04.Sehnsucht Nach Dir (4:13)
05.Deine Augen (4:20)
06.Be My Fantasy (3:58)
07.Si Si Cheri (4:26)
08.Lieblingsfehler (3:42)
09.Ich Liebe Dich (3:55)
10.Be My Angel (4:21)
11.Warum (4:06)
12.Heute Nacht (3:46)
13.Ein Leben Lang Mit Dir (4:03)
14.Fever Of The Night (3:41)
15.Fieber Der Nacht (German Mix) (3:41)
16.Si Si Cheri (Systems In Blue Long Mix) (5:23)
--

Отчёты EAC

Singles

Отчёт EAC - 2009.Die Größte Weihnachtsmannparade

Exact Audio Copy V1.0 beta 1 from 15. November 2010
Отчёт EAC об извлечении, выполненном 20. января 2011, 1:19
Marco Lessentin / Die Grobte Weihnachtsmannparade
Дисковод: ASUS DRW-2014S1T Adapter: 0 ID: 4
Режим чтения : Достоверность
Использование точного потока : Да
Отключение кэша аудио : Да
Использование указателей C2 : Нет
Коррекция смещения при чтении : 6
Способность читать области Lead-in и Lead-out : Нет
Заполнение пропущенных сэмплов тишиной : Да
Удаление блоков с тишиной в начале и конце : Нет
При вычислениях CRC использовались нулевые сэмплы : Да
Интерфейс : Встроенный Win32-интерфейс для Win NT/2000
Выходной формат : Внутренние WAV-операции
Формат сэмплов : 44.100 Гц; 16 бит; стерео
TOC извлечённого CD
Трек | Старт | Длительность | Начальный сектор | Конечный сектор
---------------------------------------------------------------------
1 | 0:00.00 | 3:19.14 | 0 | 14938
2 | 3:19.14 | 3:16.72 | 14939 | 29710
Характеристики диапазона извлечения и сообщения об ошибках
Выбранный диапазон
Имя файла Z:\Temp\Marco Lessentin - Die Grobte Weihnachtsmannparade.wav
Пиковый уровень 99.0 %
Скорость извлечения 1.9 X
Качество диапазона 99.9 %
CRC теста 69063DAC
CRC копии 69063DAC
Копирование... OK
Ошибок не произошло
AccurateRip: сводка
Трек 1 отсутствует в базе данных
Трек 2 отсутствует в базе данных
Ни одного трека нет в базе AccurateRip
Конец отчёта
==== Контрольная сумма отчёта 7F6C67297AB1FB3ACD7C781C7FAA5417D3C09ED4FDDC5F153A3563F3C65CFEBF ====

Отчёт EAC - 2009.J. Moviestar

Exact Audio Copy V1.0 beta 3 from 29. August 2011
Отчёт EAC об извлечении, выполненном 16. апреля 2012, 20:39
Marco L. System / J. Moviestar
Дисковод: ASUS DRW-2014S1T Adapter: 13 ID: 0
Режим чтения : Достоверность
Использование точного потока : Да
Отключение кэша аудио : Да
Использование указателей C2 : Нет
Коррекция смещения при чтении : 6
Способность читать области Lead-in и Lead-out : Нет
Заполнение пропущенных сэмплов тишиной : Да
Удаление блоков с тишиной в начале и конце : Нет
При вычислениях CRC использовались нулевые сэмплы : Да
Интерфейс : Установленный внешний ASPI-интерфейс
Выходной формат : Внутренние WAV-операции
Формат сэмплов : 44.100 Гц; 16 бит; стерео
TOC извлечённого CD
Трек | Старт | Длительность | Начальный сектор | Конечный сектор
---------------------------------------------------------------------
1 | 0:00.00 | 3:41.34 | 0 | 16608
2 | 3:41.34 | 3:38.20 | 16609 | 32978
Характеристики диапазона извлечения и сообщения об ошибках
Выбранный диапазон
Имя файла Z:\Temp\Marco L. System - J. Moviestar.wav
Пиковый уровень 99.0 %
Скорость извлечения 5.4 X
Качество диапазона 100.0 %
CRC теста DDC301B6
CRC копии DDC301B6
Копирование... OK
Ошибок не произошло
AccurateRip: сводка
Трек 1 отсутствует в базе данных
Трек 2 отсутствует в базе данных
Ни одного трека нет в базе AccurateRip
Конец отчёта
---- CUETools DB Plugin V2.1.3
[CTDB TOCID: MEyxV0IDl4uHxnJgfZKkWF4Lz00-] disk not present in database, Submit result: MEyxV0IDl4uHxnJgfZKkWF4Lz00- has been uploaded
==== Контрольная сумма отчёта 1A8142C2EA18E0ADDF1700298B48319CF0A029EDB374D0E5805581DE4585B17B ====

Отчёт EAC - 2010.Summer '97

Exact Audio Copy V1.0 beta 1 from 15. November 2010
Отчёт EAC об извлечении, выполненном 4. марта 2011, 3:43
Marco Lessentin feat. Systems In Blue / Summer '97
Дисковод: ASUS DRW-2014S1T Adapter: 0 ID: 2
Режим чтения : Достоверность
Использование точного потока : Да
Отключение кэша аудио : Да
Использование указателей C2 : Нет
Коррекция смещения при чтении : 6
Способность читать области Lead-in и Lead-out : Нет
Заполнение пропущенных сэмплов тишиной : Да
Удаление блоков с тишиной в начале и конце : Нет
При вычислениях CRC использовались нулевые сэмплы : Да
Интерфейс : Установленный внешний ASPI-интерфейс
Выходной формат : Внутренние WAV-операции
Формат сэмплов : 44.100 Гц; 16 бит; стерео
TOC извлечённого CD
Трек | Старт | Длительность | Начальный сектор | Конечный сектор
---------------------------------------------------------------------
1 | 0:00.00 | 3:28.44 | 0 | 15643
2 | 3:28.44 | 3:26.39 | 15644 | 31132
Характеристики диапазона извлечения и сообщения об ошибках
Выбранный диапазон
Имя файла Z:\Temp\Marco Lessentin feat. Systems In Blue - Summer '97.wav
Пиковый уровень 99.0 %
Скорость извлечения 1.9 X
Качество диапазона 99.9 %
CRC теста 341FFD6C
CRC копии 341FFD6C
Копирование... OK
Ошибок не произошло
AccurateRip: сводка
Трек 1 отсутствует в базе данных
Трек 2 отсутствует в базе данных
Ни одного трека нет в базе AccurateRip
Конец отчёта
==== Контрольная сумма отчёта 538C692AF6ED92903E6AA92ABDC0C263B62D8B4A4B0FFDB6490C69FBD399D1B0 ====

Отчёт EAC - 2010.Die Größte Weihnachtsmannparade

Exact Audio Copy V1.0 beta 1 from 15. November 2010
Отчёт EAC об извлечении, выполненном 4. марта 2011, 3:49
Marco Lessentin feat. Systems In Blue / Die Grobte Weihnachtsmannparade
Дисковод: ASUS DRW-2014S1T Adapter: 0 ID: 2
Режим чтения : Достоверность
Использование точного потока : Да
Отключение кэша аудио : Да
Использование указателей C2 : Нет
Коррекция смещения при чтении : 6
Способность читать области Lead-in и Lead-out : Нет
Заполнение пропущенных сэмплов тишиной : Да
Удаление блоков с тишиной в начале и конце : Нет
При вычислениях CRC использовались нулевые сэмплы : Да
Интерфейс : Установленный внешний ASPI-интерфейс
Выходной формат : Внутренние WAV-операции
Формат сэмплов : 44.100 Гц; 16 бит; стерео
TOC извлечённого CD
Трек | Старт | Длительность | Начальный сектор | Конечный сектор
---------------------------------------------------------------------
1 | 0:00.00 | 3:29.22 | 0 | 15696
2 | 3:29.22 | 4:15.46 | 15697 | 34867
3 | 7:44.68 | 3:16.30 | 34868 | 49597
Характеристики диапазона извлечения и сообщения об ошибках
Выбранный диапазон
Имя файла Z:\Temp\Marco Lessentin feat. Systems In Blue - Die Grobte Weihnachtsmannparade.wav
Пиковый уровень 99.0 %
Скорость извлечения 1.7 X
Качество диапазона 100.0 %
CRC теста 01077944
CRC копии 01077944
Копирование... OK
Ошибок не произошло
AccurateRip: сводка
Трек 1 отсутствует в базе данных
Трек 2 отсутствует в базе данных
Трек 3 отсутствует в базе данных
Ни одного трека нет в базе AccurateRip
Конец отчёта
==== Контрольная сумма отчёта E5410149626BDC2B28B84EA479F7CA19F0A6187C97ED4E52D868902EFBBBF920 ====

Отчёт EAC - 2011.Ein Leben Lang Mit Dir

Exact Audio Copy V1.0 beta 3 from 29. August 2011
Отчёт EAC об извлечении, выполненном 16. апреля 2012, 20:49
Marco Lessentin / Ein Leben Lang Mit Dir
Дисковод: ASUS DRW-2014S1T Adapter: 13 ID: 0
Режим чтения : Достоверность
Использование точного потока : Да
Отключение кэша аудио : Да
Использование указателей C2 : Нет
Коррекция смещения при чтении : 6
Способность читать области Lead-in и Lead-out : Нет
Заполнение пропущенных сэмплов тишиной : Да
Удаление блоков с тишиной в начале и конце : Нет
При вычислениях CRC использовались нулевые сэмплы : Да
Интерфейс : Установленный внешний ASPI-интерфейс
Выходной формат : Внутренние WAV-операции
Формат сэмплов : 44.100 Гц; 16 бит; стерео
TOC извлечённого CD
Трек | Старт | Длительность | Начальный сектор | Конечный сектор
---------------------------------------------------------------------
1 | 0:00.00 | 4:00.18 | 0 | 18017
2 | 4:00.18 | 4:00.17 | 18018 | 36034
3 | 8:00.35 | 3:58.25 | 36035 | 53909
Характеристики диапазона извлечения и сообщения об ошибках
Выбранный диапазон
Имя файла Z:\Temp\Marco Lessentin - Ein Leben Lang Mit Dir.wav
Пиковый уровень 99.0 %
Скорость извлечения 4.5 X
Качество диапазона 99.9 %
CRC теста 30A2B577
CRC копии 30A2B577
Копирование... OK
Ошибок не произошло
AccurateRip: сводка
Трек 1 отсутствует в базе данных
Трек 2 отсутствует в базе данных
Трек 3 отсутствует в базе данных
Ни одного трека нет в базе AccurateRip
Конец отчёта
---- CUETools DB Plugin V2.1.3
[CTDB TOCID: yCJW71QZYBGZ3Hcc4Sek8iqfHz0-] disk not present in database, Submit result: yCJW71QZYBGZ3Hcc4Sek8iqfHz0- has been uploaded
==== Контрольная сумма отчёта 505E52A8683B746A216AA6354366E738975E260DA48D0DD31205F78B9FEB7CCF ====

Отчёт EAC - 2011.Ich Liebe Dich

Exact Audio Copy V1.0 beta 3 from 29. August 2011
Отчёт EAC об извлечении, выполненном 16. апреля 2012, 21:08
Marco Lessentin / Ich Liebe Dich
Дисковод: ASUS DRW-2014S1T Adapter: 13 ID: 0
Режим чтения : Достоверность
Использование точного потока : Да
Отключение кэша аудио : Да
Использование указателей C2 : Нет
Коррекция смещения при чтении : 6
Способность читать области Lead-in и Lead-out : Нет
Заполнение пропущенных сэмплов тишиной : Да
Удаление блоков с тишиной в начале и конце : Нет
При вычислениях CRC использовались нулевые сэмплы : Да
Интерфейс : Установленный внешний ASPI-интерфейс
Выходной формат : Внутренние WAV-операции
Формат сэмплов : 44.100 Гц; 16 бит; стерео
TOC извлечённого CD
Трек | Старт | Длительность | Начальный сектор | Конечный сектор
---------------------------------------------------------------------
1 | 0:00.00 | 3:52.65 | 0 | 17464
2 | 3:52.65 | 3:53.05 | 17465 | 34944
3 | 7:45.70 | 3:50.65 | 34945 | 52259
Характеристики диапазона извлечения и сообщения об ошибках
Выбранный диапазон
Имя файла Z:\Temp\Marco Lessentin - Ich Liebe Dich.wav
Пиковый уровень 98.9 %
Скорость извлечения 5.7 X
Качество диапазона 100.0 %
CRC теста D21EF987
CRC копии D21EF987
Копирование... OK
Ошибок не произошло
AccurateRip: сводка
Трек 1 отсутствует в базе данных
Трек 2 отсутствует в базе данных
Трек 3 отсутствует в базе данных
Ни одного трека нет в базе AccurateRip
Конец отчёта
---- CUETools DB Plugin V2.1.3
[CTDB TOCID: yGzay1JfLP6MF7vEX8n4NpP._VU-] disk not present in database, Submit result: yGzay1JfLP6MF7vEX8n4NpP._VU- has been uploaded
==== Контрольная сумма отчёта A4E1973F8E5FCE62CB2DAA4F6EC0F8B0DDC9D308A805E518B30F422F2B1D914F ====

Отчёт EAC - 2012.Si Si Cheri (Promo)

Exact Audio Copy V1.0 beta 3 from 29. August 2011
Отчёт EAC об извлечении, выполненном 4. ноября 2014, 17:07
Marco Lessentin / Si Si Cheri
Дисковод: ASUS DRW-2014S1T Adapter: 6 ID: 0
Режим чтения : Достоверность
Использование точного потока : Да
Отключение кэша аудио : Да
Использование указателей C2 : Нет
Коррекция смещения при чтении : 6
Способность читать области Lead-in и Lead-out : Нет
Заполнение пропущенных сэмплов тишиной : Да
Удаление блоков с тишиной в начале и конце : Нет
При вычислениях CRC использовались нулевые сэмплы : Да
Интерфейс : Установленный внешний ASPI-интерфейс
Выходной формат : Внутренние WAV-операции
Формат сэмплов : 44.100 Гц; 16 бит; стерео
TOC извлечённого CD
Трек | Старт | Длительность | Начальный сектор | Конечный сектор
---------------------------------------------------------------------
1 | 0:00.00 | 4:11.43 | 0 | 18867
Характеристики диапазона извлечения и сообщения об ошибках
Выбранный диапазон
Имя файла Z:\Temp\Marco Lessentin - Si Si Cheri.wav
Пиковый уровень 100.0 %
Скорость извлечения 4.8 X
Качество диапазона 100.0 %
CRC теста 30BE2EB1
CRC копии 30BE2EB1
Копирование... OK
Ошибок не произошло
AccurateRip: сводка
Трек 1 точность не определена (достоверность 1) [7B16972C], AccurateRip вернул [AD46A16C] (AR v2)
Ни один трек не прошёл проверки на точность
В вашей базе может быть иной вариант штамповки диска
Конец отчёта
---- CUETools DB Plugin V2.1.3
[CTDB TOCID: 4BN3PDXL_CdTvJhfPCCSMK1ev3Y-] disk not present in database, Submit result: 4BN3PDXL_CdTvJhfPCCSMK1ev3Y- has been uploaded
==== Контрольная сумма отчёта F8744F0BFC135875C0516EF832736EDE4FD3BB8A4AF285B510036B493B950CAB ====

Отчёт EAC - 2012.Si Si Cheri (3tr)

Exact Audio Copy V1.0 beta 3 from 29. August 2011
Отчёт EAC об извлечении, выполненном 25. июля 2012, 21:06
Marco Lessentin / Si Si Cheri
Дисковод: ASUS DRW-2014S1T Adapter: 11 ID: 0
Режим чтения : Достоверность
Использование точного потока : Да
Отключение кэша аудио : Да
Использование указателей C2 : Нет
Коррекция смещения при чтении : 6
Способность читать области Lead-in и Lead-out : Нет
Заполнение пропущенных сэмплов тишиной : Да
Удаление блоков с тишиной в начале и конце : Нет
При вычислениях CRC использовались нулевые сэмплы : Да
Интерфейс : Установленный внешний ASPI-интерфейс
Выходной формат : Внутренние WAV-операции
Формат сэмплов : 44.100 Гц; 16 бит; стерео
TOC извлечённого CD
Трек | Старт | Длительность | Начальный сектор | Конечный сектор
---------------------------------------------------------------------
1 | 0:00.00 | 4:13.36 | 0 | 19010
2 | 4:13.36 | 4:14.21 | 19011 | 38081
3 | 8:27.57 | 4:12.16 | 38082 | 56997
Характеристики диапазона извлечения и сообщения об ошибках
Выбранный диапазон
Имя файла Z:\Temp\Marco Lessentin - Si Si Cheri.wav
Пиковый уровень 99.0 %
Скорость извлечения 4.5 X
Качество диапазона 99.9 %
CRC теста C0C204AE
CRC копии C0C204AE
Копирование... OK
Ошибок не произошло
AccurateRip: сводка
Трек 1 отсутствует в базе данных
Трек 2 отсутствует в базе данных
Трек 3 отсутствует в базе данных
Ни одного трека нет в базе AccurateRip
Конец отчёта
---- CUETools DB Plugin V2.1.3
[CTDB TOCID: HIhZTH8lFThdgGWMzDxkmbPdS4A-] disk not present in database, Submit result: HIhZTH8lFThdgGWMzDxkmbPdS4A- has been uploaded
==== Контрольная сумма отчёта C9328FA68DE50BB099AA3EB7E5D2312FEB27150D5078D008ED50F0A95EB9C871 ====

Отчёт EAC - 2012.Si Si Cheri (4tr)

Exact Audio Copy V1.0 beta 3 from 29. August 2011
Отчёт EAC об извлечении, выполненном 25. июля 2012, 21:43
Marco Lessentin / Si Si Cheri
Дисковод: ASUS DRW-2014S1T Adapter: 11 ID: 0
Режим чтения : Достоверность
Использование точного потока : Да
Отключение кэша аудио : Да
Использование указателей C2 : Нет
Коррекция смещения при чтении : 6
Способность читать области Lead-in и Lead-out : Нет
Заполнение пропущенных сэмплов тишиной : Да
Удаление блоков с тишиной в начале и конце : Нет
При вычислениях CRC использовались нулевые сэмплы : Да
Интерфейс : Установленный внешний ASPI-интерфейс
Выходной формат : Внутренние WAV-операции
Формат сэмплов : 44.100 Гц; 16 бит; стерео
TOC извлечённого CD
Трек | Старт | Длительность | Начальный сектор | Конечный сектор
---------------------------------------------------------------------
1 | 0:00.00 | 4:13.36 | 0 | 19010
2 | 4:13.36 | 5:22.27 | 19011 | 43187
3 | 9:35.63 | 4:14.21 | 43188 | 62258
4 | 13:50.09 | 4:12.16 | 62259 | 81174
Характеристики диапазона извлечения и сообщения об ошибках
Выбранный диапазон
Имя файла Z:\Temp\Marco Lessentin - Si Si Cheri.wav
Пиковый уровень 99.0 %
Скорость извлечения 4.8 X
Качество диапазона 99.9 %
CRC теста A44EAD65
CRC копии A44EAD65
Копирование... OK
Ошибок не произошло
AccurateRip: сводка
Трек 1 отсутствует в базе данных
Трек 2 отсутствует в базе данных
Трек 3 отсутствует в базе данных
Трек 4 отсутствует в базе данных
Ни одного трека нет в базе AccurateRip
Конец отчёта
---- CUETools DB Plugin V2.1.3
[CTDB TOCID: EvCwtTLqZJIU_tymbZGd3CU2WqY-] disk not present in database, Submit result: EvCwtTLqZJIU_tymbZGd3CU2WqY- has been uploaded
==== Контрольная сумма отчёта 82EE7075E44AF3E4AF761C704D9EE14DC0F0E938A4314106B75F54DFCE2D13A5 ====

Отчёт EAC - 2012.Dein Lacheln (Your Smile)

Exact Audio Copy V1.0 beta 3 from 29. August 2011
Отчёт EAC об извлечении, выполненном 2. марта 2013, 21:12
Marco Lessentin / Dein Lacheln (Your Smile)
Дисковод: ASUS DRW-2014S1T Adapter: 14 ID: 0
Режим чтения : Достоверность
Использование точного потока : Да
Отключение кэша аудио : Да
Использование указателей C2 : Нет
Коррекция смещения при чтении : 6
Способность читать области Lead-in и Lead-out : Нет
Заполнение пропущенных сэмплов тишиной : Да
Удаление блоков с тишиной в начале и конце : Нет
При вычислениях CRC использовались нулевые сэмплы : Да
Интерфейс : Установленный внешний ASPI-интерфейс
Выходной формат : Внутренние WAV-операции
Формат сэмплов : 44.100 Гц; 16 бит; стерео
TOC извлечённого CD
Трек | Старт | Длительность | Начальный сектор | Конечный сектор
---------------------------------------------------------------------
1 | 0:00.00 | 4:42.13 | 0 | 21162
2 | 4:42.13 | 4:42.56 | 21163 | 42368
3 | 9:24.69 | 3:29.22 | 42369 | 58065
4 | 12:54.16 | 4:15.46 | 58066 | 77236
Характеристики диапазона извлечения и сообщения об ошибках
Выбранный диапазон
Имя файла Z:\Temp\Marco Lessentin - Dein Lacheln (Your Smile).wav
Пиковый уровень 99.0 %
Скорость извлечения 4.8 X
Качество диапазона 99.9 %
CRC теста A9D3D208
CRC копии A9D3D208
Копирование... OK
Ошибок не произошло
AccurateRip: сводка
Трек 1 отсутствует в базе данных
Трек 2 отсутствует в базе данных
Трек 3 отсутствует в базе данных
Трек 4 отсутствует в базе данных
Ни одного трека нет в базе AccurateRip
Конец отчёта
---- CUETools DB Plugin V2.1.3
[CTDB TOCID: OvRuvncYhtIwJQzDZz62WXeVHFk-] disk not present in database, Submit result: OvRuvncYhtIwJQzDZz62WXeVHFk- has been uploaded
==== Контрольная сумма отчёта 04160A6F85056D47A998977A02B96C5FD79499DCED343E9E03A889E2F9B3DE2A ====

Отчёт EAC - 2012.White One (Promo)

Exact Audio Copy V1.0 beta 3 from 29. August 2011
Отчёт EAC об извлечении, выполненном 4. ноября 2014, 16:41
Marco Lessentin / White One
Дисковод: ASUS DRW-2014S1T Adapter: 6 ID: 0
Режим чтения : Достоверность
Использование точного потока : Да
Отключение кэша аудио : Да
Использование указателей C2 : Нет
Коррекция смещения при чтении : 6
Способность читать области Lead-in и Lead-out : Нет
Заполнение пропущенных сэмплов тишиной : Да
Удаление блоков с тишиной в начале и конце : Нет
При вычислениях CRC использовались нулевые сэмплы : Да
Интерфейс : Установленный внешний ASPI-интерфейс
Выходной формат : Внутренние WAV-операции
Формат сэмплов : 44.100 Гц; 16 бит; стерео
TOC извлечённого CD
Трек | Старт | Длительность | Начальный сектор | Конечный сектор
---------------------------------------------------------------------
1 | 0:00.00 | 4:13.36 | 0 | 19010
2 | 4:13.36 | 3:51.47 | 19011 | 36382
3 | 8:05.08 | 3:59.11 | 36383 | 54318
4 | 12:04.19 | 3:40.55 | 54319 | 70873
Характеристики диапазона извлечения и сообщения об ошибках
Выбранный диапазон
Имя файла Z:\Temp\Marco Lessentin - White One.wav
Пиковый уровень 100.0 %
Скорость извлечения 6.0 X
Качество диапазона 100.0 %
CRC теста CEA5071D
CRC копии CEA5071D
Копирование... OK
Ошибок не произошло
AccurateRip: сводка
Трек 1 отсутствует в базе данных
Трек 2 отсутствует в базе данных
Трек 3 отсутствует в базе данных
Трек 4 отсутствует в базе данных
Ни одного трека нет в базе AccurateRip
Конец отчёта
---- CUETools DB Plugin V2.1.3
[CTDB TOCID: 4IOFPg6j9pd_bY3hTO7NUp4cmAk-] disk not present in database, Submit result: 4IOFPg6j9pd_bY3hTO7NUp4cmAk- has been uploaded
==== Контрольная сумма отчёта 5D1DDA1F48B6968980B72C7959A28A8297B0731DA0E91B2B251EAAFCA149947A ====

Отчёт EAC - 2013.Black Two (Promo)

Exact Audio Copy V1.0 beta 3 from 29. August 2011
Отчёт EAC об извлечении, выполненном 4. ноября 2014, 15:59
Marco Lessentin / Black Two
Дисковод: ASUS DRW-2014S1T Adapter: 6 ID: 0
Режим чтения : Достоверность
Использование точного потока : Да
Отключение кэша аудио : Да
Использование указателей C2 : Нет
Коррекция смещения при чтении : 6
Способность читать области Lead-in и Lead-out : Нет
Заполнение пропущенных сэмплов тишиной : Да
Удаление блоков с тишиной в начале и конце : Нет
При вычислениях CRC использовались нулевые сэмплы : Да
Интерфейс : Установленный внешний ASPI-интерфейс
Выходной формат : Внутренние WAV-операции
Формат сэмплов : 44.100 Гц; 16 бит; стерео
TOC извлечённого CD
Трек | Старт | Длительность | Начальный сектор | Конечный сектор
---------------------------------------------------------------------
1 | 0:00.00 | 4:42.13 | 0 | 21162
2 | 4:42.13 | 4:13.36 | 21163 | 40173
3 | 8:55.49 | 3:53.35 | 40174 | 57683
4 | 12:49.09 | 4:00.74 | 57684 | 75757
5 | 16:50.08 | 3:31.64 | 75758 | 91646
Характеристики диапазона извлечения и сообщения об ошибках
Выбранный диапазон
Имя файла Z:\Temp\Marco Lessentin - Black Two.wav
Пиковый уровень 99.0 %
Скорость извлечения 6.3 X
Качество диапазона 100.0 %
CRC теста 4B52B222
CRC копии 4B52B222
Копирование... OK
Ошибок не произошло
AccurateRip: сводка
Трек 1 отсутствует в базе данных
Трек 2 отсутствует в базе данных
Трек 3 отсутствует в базе данных
Трек 4 отсутствует в базе данных
Трек 5 отсутствует в базе данных
Ни одного трека нет в базе AccurateRip
Конец отчёта
---- CUETools DB Plugin V2.1.3
[CTDB TOCID: nh7tx1erETRma1XZZN1ivCuy5Hk-] disk not present in database, Submit result: nh7tx1erETRma1XZZN1ivCuy5Hk- has been uploaded
==== Контрольная сумма отчёта 13D3E8BA3B4EC248810CF02E78F2A216F3C35C35C093F04BF4EA67231AF55FFA ====

Отчёт EAC - 2013.Dein Lacheln (Your Smile)

Exact Audio Copy V1.0 beta 3 from 29. August 2011
Отчёт EAC об извлечении, выполненном 7. апреля 2013, 17:26
Marco Lessentin / Dein Lacheln (Your Smile)
Дисковод: ASUS DRW-2014S1T Adapter: 14 ID: 0
Режим чтения : Достоверность
Использование точного потока : Да
Отключение кэша аудио : Да
Использование указателей C2 : Нет
Коррекция смещения при чтении : 6
Способность читать области Lead-in и Lead-out : Нет
Заполнение пропущенных сэмплов тишиной : Да
Удаление блоков с тишиной в начале и конце : Нет
При вычислениях CRC использовались нулевые сэмплы : Да
Интерфейс : Установленный внешний ASPI-интерфейс
Выходной формат : Внутренние WAV-операции
Формат сэмплов : 44.100 Гц; 16 бит; стерео
TOC извлечённого CD
Трек | Старт | Длительность | Начальный сектор | Конечный сектор
---------------------------------------------------------------------
1 | 0:00.00 | 4:42.13 | 0 | 21162
2 | 4:42.13 | 5:15.39 | 21163 | 44826
3 | 9:57.52 | 4:42.56 | 44827 | 66032
4 | 14:40.33 | 4:42.52 | 66033 | 87234
Характеристики диапазона извлечения и сообщения об ошибках
Выбранный диапазон
Имя файла Z:\Temp\Marco Lessentin - Dein Lacheln (Your Smile).wav
Пиковый уровень 99.0 %
Скорость извлечения 6.2 X
Качество диапазона 100.0 %
CRC теста 02413D77
CRC копии 02413D77
Копирование... OK
Ошибок не произошло
AccurateRip: сводка
Трек 1 отсутствует в базе данных
Трек 2 отсутствует в базе данных
Трек 3 отсутствует в базе данных
Трек 4 отсутствует в базе данных
Ни одного трека нет в базе AccurateRip
Конец отчёта
---- CUETools DB Plugin V2.1.3
[CTDB TOCID: 3ezvdknrGbHacacf7my4Lr8ymYk-] found, Submit result: already submitted
[2b3db367] (1/1) Accurately ripped
==== Контрольная сумма отчёта 4757A8F58EFBA0DE2C4B88B3151ABC62175A4E2758507C4E407FE524DE226120 ====

Отчёт EAC - 2013.Nur Fur Dich Allein - The Sunshine Melody

Exact Audio Copy V1.0 beta 3 from 29. August 2011
Отчёт EAC об извлечении, выполненном 20. октября 2013, 17:08
Marco Lessentin / Nur Fur Dich Allein - The Sunshine Melody
Дисковод: ASUS DRW-2014S1T Adapter: 13 ID: 0
Режим чтения : Достоверность
Использование точного потока : Да
Отключение кэша аудио : Да
Использование указателей C2 : Нет
Коррекция смещения при чтении : 6
Способность читать области Lead-in и Lead-out : Нет
Заполнение пропущенных сэмплов тишиной : Да
Удаление блоков с тишиной в начале и конце : Нет
При вычислениях CRC использовались нулевые сэмплы : Да
Интерфейс : Установленный внешний ASPI-интерфейс
Выходной формат : Внутренние WAV-операции
Формат сэмплов : 44.100 Гц; 16 бит; стерео
TOC извлечённого CD
Трек | Старт | Длительность | Начальный сектор | Конечный сектор
---------------------------------------------------------------------
1 | 0:00.00 | 4:06.30 | 0 | 18479
2 | 4:06.30 | 4:06.07 | 18480 | 36936
3 | 8:12.37 | 4:04.04 | 36937 | 55240
Характеристики диапазона извлечения и сообщения об ошибках
Выбранный диапазон
Имя файла Z:\Temp\Marco Lessentin - Nur Fur Dich Allein - The Sunshine Melody.wav
Пиковый уровень 99.0 %
Скорость извлечения 5.8 X
Качество диапазона 100.0 %
CRC теста C731A65A
CRC копии C731A65A
Копирование... OK
Ошибок не произошло
AccurateRip: сводка
Трек 1 отсутствует в базе данных
Трек 2 отсутствует в базе данных
Трек 3 отсутствует в базе данных
Ни одного трека нет в базе AccurateRip
Конец отчёта
---- CUETools DB Plugin V2.1.3
[CTDB TOCID: h5oZm0rnofPSG5RU8u2xFSki2Vs-] disk not present in database, Submit result: h5oZm0rnofPSG5RU8u2xFSki2Vs- has been uploaded
==== Контрольная сумма отчёта EDDE923C68AD7CE9131803DA7C930CB84BED1047989E400DC83B42D6C0D784C8 ====

Отчёт EAC - 2013.Nur Fur Dich Allein (The Sunshine Melody) (Promo)

Exact Audio Copy V1.0 beta 3 from 29. August 2011
Отчёт EAC об извлечении, выполненном 2. сентября 2014, 2:33
Fresh Fox & Marco Lessentin / Nur Fur Dich Allein (The Sunshine Melody)
Дисковод: ASUS DRW-2014S1T Adapter: 8 ID: 0
Режим чтения : Достоверность
Использование точного потока : Да
Отключение кэша аудио : Да
Использование указателей C2 : Нет
Коррекция смещения при чтении : 6
Способность читать области Lead-in и Lead-out : Нет
Заполнение пропущенных сэмплов тишиной : Да
Удаление блоков с тишиной в начале и конце : Нет
При вычислениях CRC использовались нулевые сэмплы : Да
Интерфейс : Установленный внешний ASPI-интерфейс
Выходной формат : Внутренние WAV-операции
Формат сэмплов : 44.100 Гц; 16 бит; стерео
TOC извлечённого CD
Трек | Старт | Длительность | Начальный сектор | Конечный сектор
---------------------------------------------------------------------
1 | 0:00.00 | 4:18.62 | 0 | 19411
2 | 4:18.62 | 7:36.63 | 19412 | 53674
3 | 11:55.50 | 3:40.60 | 53675 | 70234
4 | 15:36.35 | 3:41.24 | 70235 | 86833
5 | 19:17.59 | 4:18.05 | 86834 | 106188
6 | 23:35.64 | 4:18.71 | 106189 | 125609
Характеристики диапазона извлечения и сообщения об ошибках
Выбранный диапазон
Имя файла Z:\Temp\Fresh Fox & Marco Lessentin - Nur Fur Dich Allein (The Sunshine Melody).wav
Пиковый уровень 100.0 %
Скорость извлечения 6.5 X
Качество диапазона 100.0 %
CRC теста F96BE82B
CRC копии F96BE82B
Копирование... OK
Ошибок не произошло
AccurateRip: сводка
Трек 1 отсутствует в базе данных
Трек 2 отсутствует в базе данных
Трек 3 отсутствует в базе данных
Трек 4 отсутствует в базе данных
Трек 5 отсутствует в базе данных
Трек 6 отсутствует в базе данных
Ни одного трека нет в базе AccurateRip
Конец отчёта
---- CUETools DB Plugin V2.1.3
[CTDB TOCID: dUf7zFGi9ra.6wE7YzRlW0GI2RU-] found, Submit result: already submitted
[80732812] (1/1) Accurately ripped
==== Контрольная сумма отчёта B9154FC085E11421EF5742354278ACD873C168E36E8F16AE4FF7C43708A16271 ====

Отчёт EAC - 2013.Nur Fur Dich Allein (The Sunshine Melody) - Fieber Der Nacht (One Disco Night)

Exact Audio Copy V1.0 beta 3 from 29. August 2011
Отчёт EAC об извлечении, выполненном 2. сентября 2014, 1:23
Fresh Fox & Marco Lessentin / Nur Fur Dich Allein (The Sunshine Melody) - Fieber Der Nacht (One Disco Night)
Дисковод: ASUS DRW-2014S1T Adapter: 8 ID: 0
Режим чтения : Достоверность
Использование точного потока : Да
Отключение кэша аудио : Да
Использование указателей C2 : Нет
Коррекция смещения при чтении : 6
Способность читать области Lead-in и Lead-out : Нет
Заполнение пропущенных сэмплов тишиной : Да
Удаление блоков с тишиной в начале и конце : Нет
При вычислениях CRC использовались нулевые сэмплы : Да
Интерфейс : Установленный внешний ASPI-интерфейс
Выходной формат : Внутренние WAV-операции
Формат сэмплов : 44.100 Гц; 16 бит; стерео
TOC извлечённого CD
Трек | Старт | Длительность | Начальный сектор | Конечный сектор
---------------------------------------------------------------------
1 | 0:00.00 | 4:16.57 | 0 | 19256
2 | 4:16.57 | 3:38.31 | 19257 | 35637
Характеристики диапазона извлечения и сообщения об ошибках
Выбранный диапазон
Имя файла Z:\Temp\Fresh Fox & Marco Lessentin - Nur Fur Dich Allein (The Sunshine Melody) - Fieber Der Nacht (One Disco Night).wav
Пиковый уровень 97.7 %
Скорость извлечения 5.4 X
Качество диапазона 100.0 %
CRC теста E3610F23
CRC копии E3610F23
Копирование... OK
Ошибок не произошло
AccurateRip: сводка
Трек 1 отсутствует в базе данных
Трек 2 отсутствует в базе данных
Ни одного трека нет в базе AccurateRip
Конец отчёта
---- CUETools DB Plugin V2.1.3
[CTDB TOCID: SXviaFhTgqdvvdDtZMIwYIYQlpY-] found, Submit result: SXviaFhTgqdvvdDtZMIwYIYQlpY- has been confirmed
[60503dce] (1/1) Accurately ripped
==== Контрольная сумма отчёта 44AA677193C52CB20070AE71922DF10BB0CC0B253328E8A76B2E034CCD835015 ====

Отчёт EAC - 2014.Deine Augen

Exact Audio Copy V1.0 beta 3 from 29. August 2011
Отчёт EAC об извлечении, выполненном 2. сентября 2014, 1:42
Fresh Fox & Marco Lessentin / Deine Augen
Дисковод: ASUS DRW-2014S1T Adapter: 8 ID: 0
Режим чтения : Достоверность
Использование точного потока : Да
Отключение кэша аудио : Да
Использование указателей C2 : Нет
Коррекция смещения при чтении : 6
Способность читать области Lead-in и Lead-out : Нет
Заполнение пропущенных сэмплов тишиной : Да
Удаление блоков с тишиной в начале и конце : Нет
При вычислениях CRC использовались нулевые сэмплы : Да
Интерфейс : Установленный внешний ASPI-интерфейс
Выходной формат : Внутренние WAV-операции
Формат сэмплов : 44.100 Гц; 16 бит; стерео
TOC извлечённого CD
Трек | Старт | Длительность | Начальный сектор | Конечный сектор
---------------------------------------------------------------------
1 | 0:00.00 | 4:25.17 | 0 | 19891
2 | 4:25.17 | 4:19.00 | 19892 | 39316
3 | 8:44.17 | 7:18.40 | 39317 | 72206
4 | 16:02.57 | 4:19.01 | 72207 | 91632
5 | 20:21.58 | 5:49.18 | 91633 | 117825
6 | 26:11.01 | 4:45.49 | 117826 | 139249
Характеристики диапазона извлечения и сообщения об ошибках
Выбранный диапазон
Имя файла Z:\Temp\Fresh Fox & Marco Lessentin - Deine Augen.wav
Пиковый уровень 95.0 %
Скорость извлечения 7.3 X
Качество диапазона 100.0 %
CRC теста 8BA3FD69
CRC копии 8BA3FD69
Копирование... OK
Ошибок не произошло
AccurateRip: сводка
Трек 1 : извлечено точно (доверие 1) [0DC7E663] (AR v2)
Трек 2 : извлечено точно (доверие 1) [CF754C4C] (AR v2)
Трек 3 : извлечено точно (доверие 1) [5D9B4B68] (AR v2)
Трек 4 : извлечено точно (доверие 1) [A9EA2DBE] (AR v2)
Трек 5 : извлечено точно (доверие 1) [C7F99F14] (AR v2)
Трек 6 : извлечено точно (доверие 1) [33057FE0] (AR v2)
Все треки извлечены точно
Конец отчёта
---- CUETools DB Plugin V2.1.3
[CTDB TOCID: NzOKu88CLz4wDYMGqVXwyLdsGCg-] disk not present in database, Submit result: NzOKu88CLz4wDYMGqVXwyLdsGCg- has been uploaded
==== Контрольная сумма отчёта 83AA87C7B7CD418D18B63EBE568846EF3D482A531569B453B6504793684D5BDC ====

Отчёт EAC - 2014.Fieber Der Nacht

Exact Audio Copy V1.0 beta 3 from 29. August 2011
Отчёт EAC об извлечении, выполненном 2. сентября 2014, 2:00
Fresh Fox & Marco Lessentin / Fieber Der Nacht
Дисковод: ASUS DRW-2014S1T Adapter: 8 ID: 0
Режим чтения : Достоверность
Использование точного потока : Да
Отключение кэша аудио : Да
Использование указателей C2 : Нет
Коррекция смещения при чтении : 6
Способность читать области Lead-in и Lead-out : Нет
Заполнение пропущенных сэмплов тишиной : Да
Удаление блоков с тишиной в начале и конце : Нет
При вычислениях CRC использовались нулевые сэмплы : Да
Интерфейс : Установленный внешний ASPI-интерфейс
Выходной формат : Внутренние WAV-операции
Формат сэмплов : 44.100 Гц; 16 бит; стерео
TOC извлечённого CD
Трек | Старт | Длительность | Начальный сектор | Конечный сектор
---------------------------------------------------------------------
1 | 0:00.00 | 3:40.72 | 0 | 16571
2 | 3:40.72 | 4:40.00 | 16572 | 37571
3 | 8:20.72 | 6:42.00 | 37572 | 67721
4 | 15:02.72 | 4:38.58 | 67722 | 88629
5 | 19:41.55 | 5:08.07 | 88630 | 111736
Характеристики диапазона извлечения и сообщения об ошибках
Выбранный диапазон
Имя файла Z:\Temp\Fresh Fox & Marco Lessentin - Fieber Der Nacht.wav
Пиковый уровень 100.0 %
Скорость извлечения 7.2 X
Качество диапазона 100.0 %
CRC теста D8A0A895
CRC копии D8A0A895
Копирование... OK
Ошибок не произошло
AccurateRip: сводка
Трек 1 : извлечено точно (доверие 1) [E8FA6683] (AR v2)
Трек 2 : извлечено точно (доверие 1) [EFCC911D] (AR v2)
Трек 3 : извлечено точно (доверие 1) [3F27BF63] (AR v2)
Трек 4 : извлечено точно (доверие 1) [29EE6F6C] (AR v2)
Трек 5 : извлечено точно (доверие 1) [328A050C] (AR v2)
Все треки извлечены точно
Конец отчёта
---- CUETools DB Plugin V2.1.3
[CTDB TOCID: rMKjcewBIxiWt.IBzYjqFvZf80M-] disk not present in database, Submit result: rMKjcewBIxiWt.IBzYjqFvZf80M- has been uploaded
==== Контрольная сумма отчёта 436209B3E0905F84313F023472B9ECADA5C90778C10299E51487248CDE139E67 ====

Отчёт EAC - 2015.Si Si Cheri

Exact Audio Copy V1.3 from 2. September 2016
Отчёт EAC об извлечении, выполненном 20. февраля 2018, 22:49
Fresh Fox & Marco Lessentin / Si Si Cheri
Дисковод: ASUS DRW-2014S1T Adapter: 1 ID: 0
Режим чтения : Достоверность
Использование точного потока : Да
Отключение кэша аудио : Да
Использование указателей C2 : Нет
Коррекция смещения при чтении : 6
Способность читать области Lead-in и Lead-out : Нет
Заполнение пропущенных сэмплов тишиной : Да
Удаление блоков с тишиной в начале и конце : Нет
При вычислениях CRC использовались нулевые сэмплы : Да
Интерфейс : Встроенный Win32-интерфейс для Win NT/2000
Выходной формат : Внутренние WAV-операции
Формат сэмплов : 44.100 Гц; 16 бит; стерео
TOC извлечённого CD
Трек | Старт | Длительность | Начальный сектор | Конечный сектор
---------------------------------------------------------------------
1 | 0:00.00 | 4:25.17 | 0 | 19891
2 | 4:25.17 | 6:47.00 | 19892 | 50416
3 | 11:12.17 | 5:03.16 | 50417 | 73157
4 | 16:15.33 | 4:24.35 | 73158 | 92992
Характеристики диапазона извлечения и сообщения об ошибках
Выбранный диапазон
Имя файла Z:\Temp\Fresh Fox & Marco Lessentin - Si Si Cheri.wav
Пиковый уровень 99.9 %
Скорость извлечения 6.9 X
Качество диапазона 100.0 %
CRC теста 2AB44FC8
CRC копии 2AB44FC8
Копирование... OK
Ошибок не произошло
AccurateRip: сводка
Трек 1 отсутствует в базе данных
Трек 2 отсутствует в базе данных
Трек 3 отсутствует в базе данных
Трек 4 отсутствует в базе данных
Ни одного трека нет в базе AccurateRip
Конец отчёта
---- CUETools DB Plugin V2.1.6
[CTDB TOCID: wwHvrQ1sOlwlcBDzmmss0osjlGg-] found
Submit result: wwHvrQ1sOlwlcBDzmmss0osjlGg- has been confirmed
Track | CTDB Status
1 | (1/1) Accurately ripped
2 | (1/1) Accurately ripped
3 | (1/1) Accurately ripped
4 | (1/1) Accurately ripped
==== Контрольная сумма отчёта 4F14847213795ADDC0520B80C76DC0B24599C0A02BB8AB521750242B7F7CFEDF ====

Album

Отчёт EAC - 2016.Augenblicke

Exact Audio Copy V1.3 from 2. September 2016
Отчёт EAC об извлечении, выполненном 20. февраля 2018, 23:32
Fresh Fox & Marco Lessentin / Augenblicke
Дисковод: ASUS DRW-2014S1T Adapter: 1 ID: 0
Режим чтения : Достоверность
Использование точного потока : Да
Отключение кэша аудио : Да
Использование указателей C2 : Нет
Коррекция смещения при чтении : 6
Способность читать области Lead-in и Lead-out : Нет
Заполнение пропущенных сэмплов тишиной : Да
Удаление блоков с тишиной в начале и конце : Нет
При вычислениях CRC использовались нулевые сэмплы : Да
Интерфейс : Встроенный Win32-интерфейс для Win NT/2000
Выходной формат : Внутренние WAV-операции
Формат сэмплов : 44.100 Гц; 16 бит; стерео
TOC извлечённого CD
Трек | Старт | Длительность | Начальный сектор | Конечный сектор
---------------------------------------------------------------------
1 | 0:00.00 | 4:17.18 | 0 | 19292
2 | 4:17.18 | 3:38.62 | 19293 | 35704
3 | 7:56.05 | 4:44.13 | 35705 | 57017
4 | 12:40.18 | 4:12.61 | 57018 | 75978
5 | 16:53.04 | 4:20.23 | 75979 | 95501
6 | 21:13.27 | 3:58.18 | 95502 | 113369
7 | 25:11.45 | 4:26.00 | 113370 | 133319
8 | 29:37.45 | 3:42.35 | 133320 | 150004
9 | 33:20.05 | 3:55.35 | 150005 | 167664
10 | 37:15.40 | 4:20.62 | 167665 | 187226
11 | 41:36.27 | 4:05.63 | 187227 | 205664
12 | 45:42.15 | 3:45.68 | 205665 | 222607
13 | 49:28.08 | 4:02.74 | 222608 | 240831
14 | 53:31.07 | 3:40.62 | 240832 | 257393
15 | 57:11.69 | 3:40.55 | 257394 | 273948
16 | 60:52.49 | 5:23.00 | 273949 | 298173
Характеристики диапазона извлечения и сообщения об ошибках
Выбранный диапазон
Имя файла Z:\Temp\Fresh Fox & Marco Lessentin - Augenblicke.wav
Пиковый уровень 99.9 %
Скорость извлечения 8.4 X
Качество диапазона 100.0 %
CRC теста 304EC48E
CRC копии 304EC48E
Копирование... OK
Ошибок не произошло
AccurateRip: сводка
Трек 1 отсутствует в базе данных
Трек 2 отсутствует в базе данных
Трек 3 отсутствует в базе данных
Трек 4 отсутствует в базе данных
Трек 5 отсутствует в базе данных
Трек 6 отсутствует в базе данных
Трек 7 отсутствует в базе данных
Трек 8 отсутствует в базе данных
Трек 9 отсутствует в базе данных
Трек 10 отсутствует в базе данных
Трек 11 отсутствует в базе данных
Трек 12 отсутствует в базе данных
Трек 13 отсутствует в базе данных
Трек 14 отсутствует в базе данных
Трек 15 отсутствует в базе данных
Трек 16 отсутствует в базе данных
Ни одного трека нет в базе AccurateRip
Конец отчёта
---- CUETools DB Plugin V2.1.6
[CTDB TOCID: xB5zPnj9q1sjcgS2t.2IQk3XDaw-] found
Submit result: xB5zPnj9q1sjcgS2t.2IQk3XDaw- has been confirmed
Track | CTDB Status
1 | (4/4) Accurately ripped
2 | (4/4) Accurately ripped
3 | (4/4) Accurately ripped
4 | (4/4) Accurately ripped
5 | (4/4) Accurately ripped
6 | (4/4) Accurately ripped
7 | (4/4) Accurately ripped
8 | (4/4) Accurately ripped
9 | (4/4) Accurately ripped
10 | (4/4) Accurately ripped
11 | (4/4) Accurately ripped
12 | (4/4) Accurately ripped
13 | (4/4) Accurately ripped
14 | (4/4) Accurately ripped
15 | (4/4) Accurately ripped
16 | (4/4) Accurately ripped
==== Контрольная сумма отчёта F764FE726876FEBC5F3F5505E0F2EFA726C6FD62BCD7CD0F459287D3671F5A62 ====

Продолжительность

2009.Die Grobte Weihnachtsmannparade - 00:06:36
2009.J. Moviestar - 00:07:21
2010.Die Grobte Weihnachtsmannparade - 00:11:03
2010.Summer '97 - 00:06:56
2011.Ein Leben Lang Mit Dir - 00:11:59
2011.Ich Liebe Dich - 00:11:37
2012.Si Si Cheri (Promo) - 00:04:11
2012.Si Si Cheri (3tr) - 00:12:41
2012.Si Si Cheri (4tr) - 00:18:04
2012.Dein Lacheln (Your Smile) - 00:17:11
2012.White One (Promo) - 00:15:44
2013.Black Two (Promo) - 00:20:21
2013.Dein Lacheln (Your Smile) - 00:19:24
2013.Nur Fur Dich Allein - The Sunshine Melody - 00:12:17
2013.Nur Fur Dich Allein (The Sunshine Melody) (Promo) - 00:27:54
2013.Nur Fur Dich Allein (The Sunshine Melody) - Fieber Der Nacht (One Disco Night) - 00:07:55
2014.Deine Augen - 00:30:56
2014.Fieber Der Nacht - 00:24:49
2015.Si Si Cheri - 00:20:40
Album:
2016.Augenblicke - 01:06:16

Лейблы и cat#

Singles:
2009.Die Größte Weihnachtsmannparade - Not On Label ‎– none
2009.J. Moviestar - Not On Label ‎– none
2010.Summer '97 - Not On Label ‎– none
2010.Die Größte Weihnachtsmannparade - Not On Label ‎– none
2011.Ein Leben Lang Mit Dir - Not On Label ‎– none
2011.Ich Liebe Dich - Not On Label ‎– none
2012.Si Si Cheri (Promo) - Not On Label ‎– none
2012.Si Si Cheri (3tr) - Not On Label ‎– none
2012.Si Si Cheri (4tr) - Not On Label ‎– none
2012.Dein Lacheln (Your Smile) - Not On Label ‎– none
2012.White One (Promo) - Not On Label ‎– none
2013.Black Two (Promo) - Not On Label ‎– none
2013.Dein Lacheln (Your Smile) - Not On Label ‎– none
2013.Nur Fur Dich Allein - The Sunshine Melody - Fresh Fox Records – none
2013.Nur Fur Dich Allein (The Sunshine Melody) (Promo) - Fresh Fox Records – none
2013.Nur Fur Dich Allein (The Sunshine Melody) - Fieber Der Nacht (One Disco Night) - Fresh Fox Records – none
2014.Deine Augen - Fresh Fox Records – none
2014.Fieber Der Nacht - Fresh Fox Records – MCD 14-00001
2015.Si Si Cheri - Fresh Fox Records – MCD 15-00003
Album:
2016.Augenblicke - LUCA Records ‎– 160001
--Внимание! Раздача обновлена 24.02.2018 в 17:20 МСК. Подробнее здесь.
[cybertorrent.ru].t19577.torrent 
Торрент: Зарегистрирован [ 2018-03-01 00:15 ] · 3CF061849995429EB8D2C6897FB04F20B1EFCF93

Скачать .torrent

Скачать

59 KB

Статус: проверено
Скачан: 0 раз
Размер: 4,44 GB
terms.php
[Профиль] [ЛС]
Показать сообщения:    
Ответить на тему

Текущее время: 22-Фев 02:38

Часовой пояс: UTC + 3



Вы не можете начинать темы
Вы не можете отвечать на сообщения
Вы не можете редактировать свои сообщения
Вы не можете удалять свои сообщения
Вы не можете голосовать в опросах
Вы не можете прикреплять файлы к сообщениям
Вы можете скачивать файлы