Статистика раздачи
Размер:  748 MB   |    Зарегистрирован:  3 месяца 8 дней   |    Скачан:  0 раз

Полного источника не было: Никогда

 
   
 
 

lopster ®

Пол:
Не указан
Стаж:
3 месяца 8 дней
Сообщений:
612

Битва за Севастополь
Год выпуска: 2015
Жанр: военный, драма, мелодрама, боевик
Продолжительность: 02:02:51.630 (176919 frames)
Субтитры: есть (русские на английскую речь)
Режиссер: Сергей Мокрицкий
В ролях: Юлия Пересильд, Евгений Цыганов, Олег Васильков, Никита Тарасов, Джоан Блэкэм, Полина Пахомова, Владимир Лилицкий, Анатолий Кот, Нателла Абелева-Таганова, Валерий Гришко, Сергей Барковский, Виталий Линецкий, Сергей Пускепалис, Геннадий Ченцов, Светлана Осадченко, Алла Сергийко, Станислав Боклан, Дмитрий Лаленков, Станислав Лесной, Сергей Сипливый
Описание: Любовь под нескончаемым огнем противника, дружба с Элеонорой Рузвельт, выступление на конференции, повлиявшее на исход Второй мировой войны, желание жить и страх потерять любимого человека — справится ли со всем этим хрупкая женщина? Это реальная история Людмилы Павличенко — легендарной женщины-снайпера. Солдаты шли в бой с ее именем на устах, а враги устроили на нее охоту. На поле битвы она видела смерть и страдания, но самым серьезным испытанием для нее стала любовь, которую у нее могла забрать война…
Качество: BDRip
Формат: AVI
Видео кодек: XviD
Аудио кодек: МР3
Видео: 688x288 (2.39:1), 24.000 fps, XviD build 73 ~713 kbps avg, 0.15 bit/pixel
Аудио: 48 kHz, MPEG Layer 3, 2 ch, ~128.00 kbps avg

Медиаинфо

F:\004 Мои раздачи\Битва за севастополь 745\bitva_za_sevastopol_745_[torrents.ru]_by_bm11.avi
General
Complete name : F:\004 Мои раздачи\Битва за севастополь 745\bitva_za_sevastopol_745_[torrents.ru]_by_bm11.avi
Format : AVI
Format/Info : Audio Video Interleave
File size : 748 MiB
Duration : 2h 2mn
Overall bit rate : 851 Kbps
Director : bm11
Writing application : VirtualDubMod 1.5.10.3 | www.virtualdub-fr.org || (build 2550/release)
Video
Format : MPEG-4 Visual
Format profile : Streaming Video@L1
Format settings, BVOP : Yes
Format settings, QPel : No
Format settings, GMC : No warppoints
Format settings, Matrix : Custom
Codec ID : XVID
Codec ID/Hint : XviD
Duration : 2h 2mn
Bit rate : 714 Kbps
Width : 688 pixels
Height : 288 pixels
Display aspect ratio : 2.35
Frame rate : 24.000 fps
Original frame rate : 24.005 fps
Resolution : 24 bits
Colorimetry : 4:2:0
Scan type : Progressive
Bits/(Pixel*Frame) : 0.150
Stream size : 627 MiB (84%)
Writing library : XviD 73
Audio
Format : MPEG Audio
Format version : Version 1
Format profile : Layer 3
Codec ID : 55
Codec ID/Hint : MP3
Duration : 2h 2mn
Bit rate mode : Constant
Bit rate : 128 Kbps
Minimum bit rate : 128 Kbps
Channel(s) : 2 channels
Sampling rate : 48.0 KHz
Resolution : 16 bits
Stream size : 112 MiB (15%)
Alignment : Aligned on interleaves
Interleave, duration : 42 ms (1.00 video frame)
Interleave, preload duration : 504 ms
Writing library : LAME3.99r
Encoding settings : CBR
[cybertorrent.ru].t196.torrent 
Торрент: Зарегистрирован [ 2018-02-15 15:34 ] · 97477EE2DBB0091C0687C9C43160354DC8C90411

Скачать .torrent

Скачать

15 KB

Статус: проверено
Скачан: 0 раз
Размер: 748 MB
Профиль [ЛС]
Показать сообщения:    

Текущее время: 23-Май 16:46

Часовой пояс: UTC ± 0



Вы не можете начинать темы
Вы не можете отвечать на сообщения
Вы не можете редактировать свои сообщения
Вы не можете удалять свои сообщения
Вы не можете голосовать в опросах
Вы не можете прикреплять файлы к сообщениям
Вы можете скачивать файлы