Статистика раздачи
Размер:  455 MB   |    Зарегистрирован:  5 месяцев 5 дней   |    Скачан:  0 раз

Полного источника не было: Никогда

 
   
 
 

karapuz ®

Пол:
Не указан
Стаж:
5 месяцев 6 дней
Сообщений:
128

Скуби-Ду! Забавные Состязания / Scooby-Doo! Spooky Games
Страна: США
Жанр: Ужасы, Детектив, Комедия
Продолжительность: 00:22:09
Год выпуска: 2012
Перевод: Дубляж "Пифагор" - 2012 год
Русские субтитры: есть
Главы: есть, 5 шт-Режиссёр: Виктор Кук / Victor Cook
Описание: Специальный выпуск, посвященный Олимпийским Играм.-Качество: HDTVRip 720p
Формат: MKV
Видео: MPEG-4 AVC | 1280x720 | 25 fps | 2 232 Kbps
Аудио 1: AC-3 | 48.0 KHz | 2 ch | 192 Kbps - DUB "Пифагор" 2012
Аудио 2: AC-3 | 48.0 KHz | 2 ch | 384 Kbps - Английский
Субтитры 1: Русские
Субтитры 2: Английские
Семпл

Подробные технические данные

General
Format : Matroska
Format version : Version 4 / Version 2
File size : 455 MiB
Duration : 22mn 10s
Overall bit rate : 2 868 Kbps
Encoded date : UTC 2014-08-25 13:57:29
Writing application : mkvmerge v7.0.0 ('Where We Going') 32bit built on Jun 9 2014 15:08:34
Writing library : libebml v1.3.0 + libmatroska v1.4.1
DURATION : 00:22:09.472000000
NUMBER_OF_FRAMES : 41546
NUMBER_OF_BYTES : 63814656
_STATISTICS_WRITING_APP : mkvmerge v7.0.0 ('Where We Going') 32bit built on Jun 9 2014 15:08:34
_STATISTICS_WRITING_DATE_UTC : 2014-08-25 13:57:29
_STATISTICS_TAGS : BPS DURATION NUMBER_OF_FRAMES NUMBER_OF_BYTES
Attachment : Yes
Video
ID : 1
Format : AVC
Format/Info : Advanced Video Codec
Format profile : Main@L4.0
Format settings, CABAC : Yes
Format settings, ReFrames : 4 frames
Codec ID : V_MPEG4/ISO/AVC
Duration : 22mn 10s
Bit rate : 2 235 Kbps
Width : 1 280 pixels
Height : 720 pixels
Display aspect ratio : 16:9
Frame rate mode : Constant
Frame rate : 25.000 fps
Color space : YUV
Chroma subsampling : 4:2:0
Bit depth : 8 bits
Scan type : Progressive
Bits/(Pixel*Frame) : 0.097
Stream size : 355 MiB (78%)
Writing library : x264 core 130 r2273 b3065e6
Encoding settings : cabac=1 / ref=4 / deblock=1:1:1 / analyse=0x1:0x111 / me=hex / subme=6 / psy=1 / psy_rd=0.40:0.00 / mixed_ref=1 / me_range=16 / chroma_me=1 / trellis=1 / 8x8dct=0 / cqm=0 / deadzone=21,11 / fast_pskip=1 / chroma_qp_offset=-2 / threads=6 / lookahead_threads=1 / sliced_threads=0 / nr=0 / decimate=1 / interlaced=0 / bluray_compat=0 / constrained_intra=0 / bframes=5 / b_pyramid=2 / b_adapt=1 / b_bias=0 / direct=1 / weightb=1 / open_gop=0 / weightp=1 / keyint=250 / keyint_min=25 / scenecut=40 / intra_refresh=0 / rc_lookahead=30 / rc=crf / mbtree=1 / crf=19.0 / qcomp=0.60 / qpmin=0 / qpmax=69 / qpstep=4 / vbv_maxrate=20000 / vbv_bufsize=25000 / crf_max=0.0 / nal_hrd=none / ip_ratio=1.40 / aq=1:0.60
Language : English
Default : Yes
Forced : No
Color primaries : BT.709
Transfer characteristics : BT.709
Matrix coefficients : BT.709
Audio #1
ID : 2
Format : AC-3
Format/Info : Audio Coding 3
Mode extension : CM (complete main)
Format settings, Endianness : Big
Codec ID : A_AC3
Duration : 22mn 10s
Bit rate mode : Constant
Bit rate : 192 Kbps
Channel(s) : 2 channels
Channel positions : Front: L R
Sampling rate : 48.0 KHz
Bit depth : 16 bits
Compression mode : Lossy
Stream size : 30.5 MiB (7%)
Title : DUB "Пифагор" 2012
Language : Russian
Default : Yes
Forced : No
Audio #2
ID : 3
Format : AC-3
Format/Info : Audio Coding 3
Mode extension : CM (complete main)
Format settings, Endianness : Big
Codec ID : A_AC3
Duration : 22mn 10s
Bit rate mode : Constant
Bit rate : 384 Kbps
Channel(s) : 2 channels
Channel positions : Front: L R
Sampling rate : 48.0 KHz
Bit depth : 16 bits
Compression mode : Lossy
Stream size : 60.9 MiB (13%)
Language : English
Default : No
Forced : No
Text #1
ID : 4
Format : VobSub
Muxing mode : zlib
Codec ID : S_VOBSUB
Codec ID/Info : The same subtitle format used on DVDs
Language : Russian
Default : No
Forced : No
DURATION : 00:21:53.271000000
NUMBER_OF_FRAMES : 359
NUMBER_OF_BYTES : 450887
_STATISTICS_WRITING_APP : mkvmerge v7.0.0 ('Where We Going') 32bit built on Jun 9 2014 15:08:34
_STATISTICS_WRITING_DATE_UTC : 2014-08-25 13:57:29
_STATISTICS_TAGS : BPS DURATION NUMBER_OF_FRAMES NUMBER_OF_BYTES
Text #2
ID : 5
Format : VobSub
Muxing mode : zlib
Codec ID : S_VOBSUB
Codec ID/Info : The same subtitle format used on DVDs
Language : English
Default : No
Forced : No
DURATION : 00:21:56.831000000
NUMBER_OF_FRAMES : 294
NUMBER_OF_BYTES : 354192
_STATISTICS_WRITING_APP : mkvmerge v7.0.0 ('Where We Going') 32bit built on Jun 9 2014 15:08:34
_STATISTICS_WRITING_DATE_UTC : 2014-08-25 13:57:29
_STATISTICS_TAGS : BPS DURATION NUMBER_OF_FRAMES NUMBER_OF_BYTES
Menu
00:00:00.000 : en:Chapter 01
00:02:02.088 : en:Chapter 02
00:08:10.728 : en:Chapter 03
00:14:38.568 : en:Chapter 04
00:21:08.368 : en:Chapter 05

Скриншоты

[cybertorrent.ru].t1963.torrent 
Торрент: Зарегистрирован [ 2018-02-16 08:44 ] · CB49D797DAC27600A11B7D16BF92BEF4C391CB97

Скачать .torrent

Скачать

18 KB

Статус: проверено
Скачан: 0 раз
Размер: 455 MB
Профиль [ЛС]
Показать сообщения:    

Текущее время: 21-Июл 23:25

Часовой пояс: UTC ± 0



Вы не можете начинать темы
Вы не можете отвечать на сообщения
Вы не можете редактировать свои сообщения
Вы не можете удалять свои сообщения
Вы не можете голосовать в опросах
Вы не можете прикреплять файлы к сообщениям
Вы можете скачивать файлы