Статистика раздачи
Размер:  15,42 GB   |    Зарегистрирован:  7 месяцев 8 дней   |    Скачан:  0 раз

Полного источника не было: Никогда

 
   
 
 

DR_KTO ®

Пол:
Не указан
Стаж:
7 месяцев 9 дней
Сообщений:
105

-Оригинальное название: The Simpsons
Русское название: Симпсоны
Год выпуска: 2013
Страна: США
Жанр: Комедия, сатира
Продолжительность: 20 минут (серия)-Перевод: Профессиональный (многоголосый, закадровый) по заказу 2х2 (Быстров, Савина, Эльдаров)
Перевод #2: Любительский (многоголосый, закадровый) Nice Media
Перевод #3: Профессиональный (многоголосый, закадровый) VO-Production
Перевод #4: Профессиональный (полное дублирование) по заказу QTV
Субтитры: есть (русские, английские)-Производство: FOX
Режиссер: Мэтт Гроунинг / Matt Groening-Роли озвучивали: Дэн Кастелланета, Джули Кавнер, Нэнси Картрайт, Ярдли Смит, Гарри Ширер, Хэнк Азария, Памела Хейден, Тресс МакНилл, Карл Видерготт, Мэгги Росвэлл и др.-Описание: Симпсоны живут в вымышленном городе Спрингфилд, со своим обществом и историей. Гомер - отец семейства, который дает плохие советы и работает инспектором безопасности на атомной электростанции; Мардж - любящая мать и жена, старается сохранить спокойствие в семье; Барт - 10 летний хулиган; Лиза - философский 8-летний ребенок; и Мэгги - младенец, который общается посредством соски.- -Спасибо ALEKS KV, Den.S-92, 4erkov, Xottabi4, #Antisnl# за звук, notabenoid за субтитры, 4erkov за синхронизацию дорожек QTV, SerGoLeOne за синхронизацию дорожек 2х2.-Сэмпл: скачать
Качество: WEB-DL 720p
Формат: MKV
Видео кодек: h264
Аудио кодек: AC3
Видео: MPEG4 Video (H264) 1280x718 23.976fps ~4Mbps, MPEG4 Video (H264) 1280x720 23.976fps ~4Mbps (15+ серии)
Аудио:
  • русская 2x2: Dolby AC3 48000Hz stereo 192Kbps,
  • русская Nice Media: Dolby AC3 48000Hz stereo 192Kbps,
  • русская VO-Production: Dolby AC3 48000Hz stereo 192Kbps,
  • украинская QTV: Dolby AC3 48000Hz stereo 192Kbps,
  • английская: Dolby AC3 48000Hz 6ch 384Kbps
    Скриншоты:
    -

    Список серий

    25 сезон:
    01. Homerland
    02. Treehouse of Horror XXIV
    03. Four Regrettings and a Funeral
    04. YOLO
    05. Labor Pains
    06. The Kid is All Right
    07. Yellow Subterfuge
    08. White Christmas Blues
    09. Steal This Episode
    10. Married To The Blob
    11. Specs and the City
    12. Diggs
    13. The Man Who Grew Too Much
    14. The Winter of His Content
    15. The War of Art
    16. You Don't Have to Live Like a Referee
    17. Luca$
    18. Days of Future Future
    19. What to Expect When Bart's Expecting
    20. Brick Like Me
    21. Pay Pal
    22. The Yellow Badge of Cowardge

    Media Info

    Код:General
    Unique ID : 210356431366789668692570929846805449050 (0x9E412CCDDF8200B4B5D8397BBF51C95A)
    Complete name : V:\HD\The Simpsons. 25 season (WEB-DL l 720p l SerGoLeOne)\01. Homerland.mkv
    Format : Matroska
    Format version : Version 1
    File size : 704 MiB
    Duration : 21mn 13s
    Overall bit rate : 4 637 Kbps
    Encoded date : UTC 2014-08-25 18:18:35
    Writing application : mkvmerge v2.3.0 ('Freak U') built on Sep 8 2008 18:32:16
    Writing library : libebml v0.7.7 + libmatroska v0.8.1
    Video
    ID : 1
    Format : AVC
    Format/Info : Advanced Video Codec
    Format profile : High@L3.1
    Format settings, CABAC : No
    Format settings, ReFrames : 2 frames
    Format settings, GOP : N=1
    Codec ID : V_MPEG4/ISO/AVC
    Duration : 21mn 13s
    Bit rate : 3 585 Kbps
    Width : 1 280 pixels
    Height : 718 pixels
    Display aspect ratio : 16:9
    Frame rate mode : Constant
    Frame rate : 23.976 fps
    Color space : YUV
    Chroma subsampling : 4:2:0
    Bit depth : 8 bits
    Scan type : Progressive
    Bits/(Pixel*Frame) : 0.163
    Stream size : 544 MiB (77%)
    Language : English
    Default : Yes
    Forced : No
    Color primaries : BT.709
    Transfer characteristics : BT.709
    Matrix coefficients : BT.709
    Audio #1
    ID : 2
    Format : AC-3
    Format/Info : Audio Coding 3
    Mode extension : CM (complete main)
    Format settings, Endianness : Big
    Codec ID : A_AC3
    Duration : 21mn 13s
    Bit rate mode : Constant
    Bit rate : 192 Kbps
    Channel(s) : 2 channels
    Channel positions : Front: L R
    Sampling rate : 48.0 KHz
    Bit depth : 16 bits
    Compression mode : Lossy
    Stream size : 29.2 MiB (4%)
    Title : 2x2
    Language : Russian
    Default : Yes
    Forced : No
    Audio #2
    ID : 3
    Format : AC-3
    Format/Info : Audio Coding 3
    Mode extension : CM (complete main)
    Format settings, Endianness : Big
    Codec ID : A_AC3
    Duration : 21mn 13s
    Bit rate mode : Constant
    Bit rate : 192 Kbps
    Channel(s) : 2 channels
    Channel positions : Front: L R
    Sampling rate : 48.0 KHz
    Bit depth : 16 bits
    Compression mode : Lossy
    Stream size : 29.2 MiB (4%)
    Title : Nice Media
    Language : Russian
    Default : No
    Forced : No
    Audio #3
    ID : 4
    Format : AC-3
    Format/Info : Audio Coding 3
    Mode extension : CM (complete main)
    Format settings, Endianness : Big
    Codec ID : A_AC3
    Duration : 21mn 13s
    Bit rate mode : Constant
    Bit rate : 192 Kbps
    Channel(s) : 2 channels
    Channel positions : Front: L R
    Sampling rate : 48.0 KHz
    Bit depth : 16 bits
    Compression mode : Lossy
    Delay relative to video : 250ms
    Stream size : 29.2 MiB (4%)
    Title : VO-Production
    Language : Russian
    Default : No
    Forced : No
    Audio #4
    ID : 5
    Format : AC-3
    Format/Info : Audio Coding 3
    Mode extension : CM (complete main)
    Format settings, Endianness : Big
    Codec ID : A_AC3
    Duration : 21mn 13s
    Bit rate mode : Constant
    Bit rate : 384 Kbps
    Channel(s) : 6 channels
    Channel positions : Front: L C R, Side: L R, LFE
    Sampling rate : 48.0 KHz
    Bit depth : 16 bits
    Compression mode : Lossy
    Delay relative to video : 16ms
    Stream size : 58.3 MiB (8%)
    Title : Original
    Language : English
    Default : No
    Forced : No
    Text #1
    ID : 6
    Format : UTF-8
    Codec ID : S_TEXT/UTF8
    Codec ID/Info : UTF-8 Plain Text
    Language : Russian
    Default : No
    Forced : No
    Text #2
    ID : 7
    Format : UTF-8
    Codec ID : S_TEXT/UTF8
    Codec ID/Info : UTF-8 Plain Text
    Language : English
    Default : No
    Forced : No
    -ссылка на альтернативные раздачи
    [cybertorrent.ru].t1964.torrent 
    Торрент: Зарегистрирован [ 2018-02-16 08:44 ] · 1914943F759CB1F5F4ED2566ABF395E715BCFC53

    Скачать .torrent

    Скачать

    41 KB

    Статус: проверено
    Скачан: 0 раз
    Размер: 15,42 GB
  • Профиль [ЛС]
    Показать сообщения:    

    Текущее время: 24-Сен 17:55

    Часовой пояс: UTC ± 0



    Вы не можете начинать темы
    Вы не можете отвечать на сообщения
    Вы не можете редактировать свои сообщения
    Вы не можете удалять свои сообщения
    Вы не можете голосовать в опросах
    Вы не можете прикреплять файлы к сообщениям
    Вы можете скачивать файлы
    Torrents24.ru открытый BitTorrent Torrents24.pl открытый BitTorrent CyberTorrent.ru открытый BitTorrent BtList.ru рейтинг BitTorrent трекеров Яндекс.Метрика