BitTorrent клиенты



(J-Rock) Dir en grey - Полная дискография - 1997-2018 (UPDATE 01.2018 - VESTIGE OF SCRATCHES), FLAC (image+.cue) lossless

Ответить на тему
Статистика раздачи
Размер:  14,15 GB   |    Зарегистрирован:  11 месяцев 21 день   |    Скачан:  0 раз

Полного источника не было: Никогда

 
   
 
 
Автор Сообщение

Olive ®

Пол: Не указан

Стаж: 11 месяцев 22 дня

Сообщений: 45

Создавать темы 01-Мар-2018 01:08

[Цитировать]

Dir en grey - Полная дискография - 1997-2018
-Жанр: J-Rock
Годы выпуска: 1997-2018
Статус: ACTIVE
Страна: Япония
Аудио кодек: FLAC
Тип рипа: image+.cue
Источник: Домашняя коллекция
Общая продолжительность: 34 часа 25 минут 20 секунд-Dir en grey - самая популярная в мире японская рок группа, основанная в 1997 году на обломках коллектива La:Sadies, довольно скоро попала под пристальное внимание влиятельного японского продюсера и по совместительству барабанщика группы X Japan - Yoshiki, который помог с записью первого полноценного альбома GAUZE. На данный момент издается на лейбле FIREWALL DIV., подлейбле компании Free-Will. К 2011 году, группа выпустила 8 альбомов, 2 EP, 27 синглов, сборник ремиксов, компиляцию лучших, по их мнению, песен за период 1998-2007, приняла участие в различных японских и зарубежных сборниках (и это все не считая 4 сборника клипов и многочисленные концерты, выпущенные на ДВД). В то время как состав группы оставался неизменным с момента ее создания, многочисленные стилистические изменения в музыке Dir en grey, сделали трудно определимым жанр их творчества. Изначально группа проповедовала стиль Visual Kei, но постепенно (примерно к 2005 году) отошла от экстравагантного имиджа к повседневному внешнему виду.
Участники:
* Kyo (?) – vocals
* Kaoru (?) – guitar
* Die – guitar
* Toshiya – bass guitar
* Shinya – drums

1997.07.25 - MISSA [EP]

Catalog No.: AMCM-4315
Label: east west japan inc., a warner music group company
Total Time: 31:24
-Tracklist:
01. KIRI TO MAYU (5:08)
02. [S] (3:32)
03. Erode (6:30)
04. AOI TSUKI (5:06)
05. GARDEN (5:27)
06. byou[]shin (5:39)

log

В ЦЕЛЯХ ЭКОНОМИИ ЗНАКОВ СООБЩЕНИЯ ФАЙЛ MISSA [EP].log СМОТРИТЕ ВО ВТОРОМ СООБЩЕНИИ

1997.11.25 - Behind the Mask vol.2 -Sol'finsterre- [Omnibus]

Catalog No.: AMCM-4348
Label: east west japan inc., a warner music group company
Total Time: 52:30
-Artist / Track:
01. D+L 'Tsuioku' (3:18)
02. Be Free '24ji no Kane' (4:23)
03. NALSIST 'Diamond' (5:14)
04. ACID 'Silhouette' (4:48)
05. MISTRUST 'silence' (6:32)
06. Alicia 'Alicia' (4:40)
07. Blue Berry 'Kimiironi Somerarete...' (6:25)
08. GIGOLET 'INVISIBLE' (5:13)
09. SPEED SLAVES 'RISE' (5:34)
10. Dir en grey ' Ash' (6:18)

log

В ЦЕЛЯХ ЭКОНОМИИ ЗНАКОВ СООБЩЕНИЯ ФАЙЛ Behind the Mask vol.2 -Sol'finsterre- [Omnibus].log СМОТРИТЕ ВО ВТОРОМ СООБЩЕНИИ

1998.05.10 - JEALOUS [CDS]

Catalog No.: FWR004-CDS
Label: Free-Will
Total Time: 10:33
-Tracklist:
01. JEALOUS (6:45)
02. Unknown... Despair... a Lost (3:48)

log

В ЦЕЛЯХ ЭКОНОМИИ ЗНАКОВ СООБЩЕНИЯ ФАЙЛ JEALOUS [CDS].log СМОТРИТЕ ВО ВТОРОМ СООБЩЕНИИ

1998.08.12 - I'll [8mm CDS]

Catalog No.: FWR005-CDS
Label: Free-Will
Total Time: 9:00
-Tracklist:
01. I'll (4:31)
02. TORIKO (4:29)

log

В ЦЕЛЯХ ЭКОНОМИИ ЗНАКОВ СООБЩЕНИЯ ФАЙЛ I'll [CDS].log СМОТРИТЕ ВО ВТОРОМ СООБЩЕНИИ

1999.01.20 - AKURO NO OKA [8mm CDS]

Catalog No.: AMDM-6268
Label: east west japan inc., a warner music group company
Total Time: 12:41
-Tracklist:
01. AKURO NO OKA (8:33)
02. -ZAN- 'D.P.Y. Mix' (4:07)

log

Exact Audio Copy V0.99 prebeta 5 from 4. May 2009
EAC extraction logfile from 4. August 2011, 2:09
Dir en grey / AKURO NO OKA [CDS]
Used drive : PIONEER DVD-RW DVR-212 Adapter: 3 ID: 0
Read mode : Secure
Utilize accurate stream : Yes
Defeat audio cache : Yes
Make use of C2 pointers : No
Read offset correction : 48
Overread into Lead-In and Lead-Out : No
Fill up missing offset samples with silence : Yes
Delete leading and trailing silent blocks : No
Null samples used in CRC calculations : Yes
Used interface : Native Win32 interface for Win NT & 2000
Used output format : User Defined Encoder
Selected bitrate : 1024 kBit/s
Quality : High
Add ID3 tag : No
Command line compressor : C:\Program Files\Exact Audio Copy\Flac\flac.exe
Additional command line options : -T "DATE=%y" -T "GENRE=%m" -8 -V %s
TOC of the extracted CD
Track | Start | Length | Start sector | End sector
---------------------------------------------------------
1 | 0:00.00 | 8:33.67 | 0 | 38541
2 | 8:33.67 | 4:07.40 | 38542 | 57106
Range status and errors
Selected range
Filename C:\Documents and Settings\Рабочий стол\deg\1999.01.20 - AKURO NO OKA [CDS]\AKURO NO OKA [CDS].wav
Peak level 98.8 %
Range quality 99.9 %
Test CRC C7347A82
Copy CRC C7347A82
Copy OK
No errors occurred
AccurateRip summary
Track 1 cannot be verified as accurate (confidence 1) [6C189DB2], AccurateRip returned [9A795232]
Track 2 cannot be verified as accurate (confidence 1) [AA340971], AccurateRip returned [B83E7A31]
No tracks could be verified as accurate
You may have a different pressing from the one(s) in the database
End of status report

1999.01.20 - -ZAN- [8mm CDS]

Catalog No.: AMDM-6269
Label: east west japan inc., a warner music group company
Total Time: 12:38
-Tracklist:
01. -ZAN- (5:04)
02. YURAMEKI 'S.N.Y. Mix' (7:34)

log

Exact Audio Copy V0.99 prebeta 5 from 4. May 2009
EAC extraction logfile from 4. August 2011, 2:17
Dir en grey / -ZAN- [CDS]
Used drive : PIONEER DVD-RW DVR-212 Adapter: 3 ID: 0
Read mode : Secure
Utilize accurate stream : Yes
Defeat audio cache : Yes
Make use of C2 pointers : No
Read offset correction : 48
Overread into Lead-In and Lead-Out : No
Fill up missing offset samples with silence : Yes
Delete leading and trailing silent blocks : No
Null samples used in CRC calculations : Yes
Used interface : Native Win32 interface for Win NT & 2000
Used output format : User Defined Encoder
Selected bitrate : 1024 kBit/s
Quality : High
Add ID3 tag : No
Command line compressor : C:\Program Files\Exact Audio Copy\Flac\flac.exe
Additional command line options : -T "DATE=%y" -T "GENRE=%m" -8 -V %s
TOC of the extracted CD
Track | Start | Length | Start sector | End sector
---------------------------------------------------------
1 | 0:00.00 | 5:04.42 | 0 | 22841
2 | 5:04.42 | 7:34.28 | 22842 | 56919
Range status and errors
Selected range
Filename C:\Documents and Settings\Рабочий стол\deg\1999.01.20 - -ZAN- [CDS]\-ZAN- [CDS].wav
Peak level 98.8 %
Range quality 100.0 %
Test CRC 442FA245
Copy CRC 442FA245
Copy OK
No errors occurred
AccurateRip summary
Track 1 accurately ripped (confidence 1) [A582C6FF]
Track 2 accurately ripped (confidence 1) [9225222D]
All tracks accurately ripped
End of status report

1999.01.20 - YURAMEKI [8mm CDS]

Catalog No.: AMDM-6290
Label: east west japan inc., a warner music group company
Total Time: 11:01
-Tracklist:
01. YURAMEKI (5:09)
02. AKURO NO OKA 'K.N.Y. Mix' (5:51)

log

Exact Audio Copy V0.99 prebeta 5 from 4. May 2009
EAC extraction logfile from 4. August 2011, 2:27
Dir en grey / YURAMEKI [CDS]
Used drive : PIONEER DVD-RW DVR-212 Adapter: 3 ID: 0
Read mode : Secure
Utilize accurate stream : Yes
Defeat audio cache : Yes
Make use of C2 pointers : No
Read offset correction : 48
Overread into Lead-In and Lead-Out : No
Fill up missing offset samples with silence : Yes
Delete leading and trailing silent blocks : No
Null samples used in CRC calculations : Yes
Used interface : Native Win32 interface for Win NT & 2000
Used output format : User Defined Encoder
Selected bitrate : 1024 kBit/s
Quality : High
Add ID3 tag : No
Command line compressor : C:\Program Files\Exact Audio Copy\Flac\flac.exe
Additional command line options : -T "DATE=%y" -T "GENRE=%m" -8 -V %s
TOC of the extracted CD
Track | Start | Length | Start sector | End sector
---------------------------------------------------------
1 | 0:00.00 | 5:09.62 | 0 | 23236
2 | 5:09.62 | 5:51.15 | 23237 | 49576
Range status and errors
Selected range
Filename C:\Documents and Settings\Рабочий стол\deg\1999.01.20 - YURAMEKI [CDS]\YURAMEKI [CDS].wav
Peak level 98.8 %
Range quality 100.0 %
Test CRC 35893BB9
Copy CRC 35893BB9
Copy OK
No errors occurred
AccurateRip summary
Track 1 accurately ripped (confidence 1) [9EA8B545]
Track 2 accurately ripped (confidence 1) [38E00EFC]
All tracks accurately ripped
End of status report

1999.05.26 - Cage [8mm CDS]

Catalog No.: AMDM-6291
Label: east west japan inc., a warner music group company
Total Time: 10:59
-Tracklist:
01. Cage (5:39)
02. [S] (Z-Z Mix) (5:19)

log

Exact Audio Copy V0.99 prebeta 5 from 4. May 2009
EAC extraction logfile from 4. August 2011, 2:36
Dir en grey / Cage [CDS]
Used drive : PIONEER DVD-RW DVR-212 Adapter: 3 ID: 0
Read mode : Secure
Utilize accurate stream : Yes
Defeat audio cache : Yes
Make use of C2 pointers : No
Read offset correction : 48
Overread into Lead-In and Lead-Out : No
Fill up missing offset samples with silence : Yes
Delete leading and trailing silent blocks : No
Null samples used in CRC calculations : Yes
Used interface : Native Win32 interface for Win NT & 2000
Used output format : User Defined Encoder
Selected bitrate : 1024 kBit/s
Quality : High
Add ID3 tag : No
Command line compressor : C:\Program Files\Exact Audio Copy\Flac\flac.exe
Additional command line options : -T "DATE=%y" -T "GENRE=%m" -8 -V %s
TOC of the extracted CD
Track | Start | Length | Start sector | End sector
---------------------------------------------------------
1 | 0:00.00 | 5:39.72 | 0 | 25496
2 | 5:39.72 | 5:19.25 | 25497 | 49446
Range status and errors
Selected range
Filename C:\Documents and Settings\Рабочий стол\deg\1999.05.26 - Cage [CDS]\Cage [CDS].wav
Peak level 99.8 %
Range quality 100.0 %
Test CRC B9C15C6F
Copy CRC B9C15C6F
Copy OK
No errors occurred
AccurateRip summary
Track 1 accurately ripped (confidence 2) [D4E73E06]
Track 2 accurately ripped (confidence 2) [204C7488]
All tracks accurately ripped
End of status report

1999.07.14 - YOKAN [8mm CDS]

Catalog No.: AMDM-6300
Label: east west japan inc., a warner music group company
Total Time: 10:03
-Tracklist:
01. YOKAN (4:41)
02. Cage (|>|<|Mix) (5:21)

log

Exact Audio Copy V0.99 prebeta 5 from 4. May 2009
EAC extraction logfile from 4. August 2011, 2:44
Dir en grey / YOKAN [CDS]
Used drive : PIONEER DVD-RW DVR-212 Adapter: 3 ID: 0
Read mode : Secure
Utilize accurate stream : Yes
Defeat audio cache : Yes
Make use of C2 pointers : No
Read offset correction : 48
Overread into Lead-In and Lead-Out : No
Fill up missing offset samples with silence : Yes
Delete leading and trailing silent blocks : No
Null samples used in CRC calculations : Yes
Used interface : Native Win32 interface for Win NT & 2000
Used output format : User Defined Encoder
Selected bitrate : 1024 kBit/s
Quality : High
Add ID3 tag : No
Command line compressor : C:\Program Files\Exact Audio Copy\Flac\flac.exe
Additional command line options : -T "DATE=%y" -T "GENRE=%m" -8 -V %s
TOC of the extracted CD
Track | Start | Length | Start sector | End sector
---------------------------------------------------------
1 | 0:00.00 | 4:41.37 | 0 | 21111
2 | 4:41.37 | 5:21.63 | 21112 | 45249
Range status and errors
Selected range
Filename C:\Documents and Settings\Рабочий стол\deg\1999.07.14 - YOKAN [CDS]\YOKAN [CDS].wav
Peak level 98.8 %
Range quality 100.0 %
Test CRC 3E8B9EDB
Copy CRC 3E8B9EDB
Copy OK
No errors occurred
AccurateRip summary
Track 1 not present in database
Track 2 not present in database
None of the tracks are present in the AccurateRip database
End of status report

1999.07.28 - GAUZE &#91;Album&#93;

Catalog No.: AMCM-4440
Label: east west japan inc., a warner music group company
Total Time: 64:52
-Tracklist:
01. GAUZE -mode of adam- (2:07)
02. Schwein NO ISU (3:31)
03. YURAMEKI (5:05)
04. raison detre (4:48)
05. 304 goushitsu, hakushi no sakura (5:17)
06. Cage (5:35)
07. TSUMI TO BATSU (5:08)
08. mazohyst of decadence (9:22)
09. YOKAN (4:39)
10. MASK (4:25)
11. -ZAN- (5:03)
12. AKURO NO OKA (9:42)
13. GAUZE -mode of eve- (0:04)

log

Exact Audio Copy V0.99 prebeta 5 from 4. May 2009
EAC extraction logfile from 11. July 2010, 8:53
Dir en grey / GAUZE
Used drive : PIONEER DVD-RW DVR-216D Adapter: 3 ID: 0
Read mode : Secure
Utilize accurate stream : Yes
Defeat audio cache : Yes
Make use of C2 pointers : No
Read offset correction : 96
Overread into Lead-In and Lead-Out : No
Fill up missing offset samples with silence : Yes
Delete leading and trailing silent blocks : No
Null samples used in CRC calculations : Yes
Used interface : Native Win32 interface for Win NT & 2000
Used output format : User Defined Encoder
Selected bitrate : 768 kBit/s
Quality : High
Add ID3 tag : No
Command line compressor : C:\Program Files\Exact Audio Copy\FLAC\FLAC.EXE
Additional command line options : -T "DATE=%y" -T "GENRE=%m" -8 -V %s
TOC of the extracted CD
Track | Start | Length | Start sector | End sector
---------------------------------------------------------
1 | 0:00.00 | 2:07.55 | 0 | 9579
2 | 2:07.55 | 3:31.65 | 9580 | 25469
3 | 5:39.45 | 5:05.52 | 25470 | 48396
4 | 10:45.22 | 4:48.55 | 48397 | 70051
5 | 15:34.02 | 5:18.00 | 70052 | 93901
6 | 20:52.02 | 5:35.00 | 93902 | 119026
7 | 26:27.02 | 5:08.00 | 119027 | 142126
8 | 31:35.02 | 9:22.00 | 142127 | 184276
9 | 40:57.02 | 4:39.55 | 184277 | 205256
10 | 45:36.57 | 4:25.58 | 205257 | 225189
11 | 50:02.40 | 5:03.37 | 225190 | 247951
12 | 55:06.02 | 9:42.30 | 247952 | 291631
13 | 64:48.32 | 0:04.43 | 291632 | 291974
Range status and errors
Selected range
Filename C:\Documents and Settings\Мои документы\GAUZE.wav
Peak level 98.8 %
Range quality 100.0 %
Test CRC 3FD232B9
Copy CRC 3FD232B9
Copy OK
No errors occurred
AccurateRip summary
Track 1 cannot be verified as accurate (confidence 4) [198EA936], AccurateRip returned [76E474BC]
Track 2 cannot be verified as accurate (confidence 4) [C34DB424], AccurateRip returned [24FE32F8]
Track 3 cannot be verified as accurate (confidence 4) [BE438095], AccurateRip returned [3162618D]
Track 4 cannot be verified as accurate (confidence 4) [75B8EC49], AccurateRip returned [49ED6BFF]
Track 5 cannot be verified as accurate (confidence 4) [E9876B70], AccurateRip returned [EBFAC7F2]
Track 6 cannot be verified as accurate (confidence 4) [22C471A7], AccurateRip returned [A1630CC5]
Track 7 cannot be verified as accurate (confidence 4) [B0324015], AccurateRip returned [B6EA3281]
Track 8 cannot be verified as accurate (confidence 4) [E934CC00], AccurateRip returned [108E6E68]
Track 9 cannot be verified as accurate (confidence 4) [D34ADAC6], AccurateRip returned [80E84FD6]
Track 10 cannot be verified as accurate (confidence 4) [02BF3838], AccurateRip returned [B1DF6A3C]
Track 11 cannot be verified as accurate (confidence 4) [11E917F3], AccurateRip returned [A2697729]
Track 12 cannot be verified as accurate (confidence 4) [2105D980], AccurateRip returned [7481CDD0]
Track 13 not present in database
12 track(s) could not be verified as accurate
1 track(s) not present in the AccurateRip database
No tracks could be verified as accurate
You may have a different pressing from the one(s) in the database
End of status report

2000.02.16 - MYAKU &#91;CDS&#93;

Catalog No.: AMCM-4464
Label: east west japan inc., a warner music group company
Total Time: 14:45
-Tracklist:
01. MYAKU (4:26)
02. Ash (5:56)
03. MYAKU (8 1/2 convert) (4:21)

log

Exact Audio Copy V0.99 prebeta 5 from 4. May 2009
EAC extraction logfile from 2. August 2011, 20:30
Dir en grey / MYAKU [CDS]
Used drive : PIONEER DVD-RW DVR-212 Adapter: 3 ID: 0
Read mode : Secure
Utilize accurate stream : Yes
Defeat audio cache : Yes
Make use of C2 pointers : No
Read offset correction : 48
Overread into Lead-In and Lead-Out : No
Fill up missing offset samples with silence : Yes
Delete leading and trailing silent blocks : No
Null samples used in CRC calculations : Yes
Used interface : Native Win32 interface for Win NT & 2000
Used output format : User Defined Encoder
Selected bitrate : 1024 kBit/s
Quality : High
Add ID3 tag : No
Command line compressor : C:\Program Files\Exact Audio Copy\Flac\flac.exe
Additional command line options : -T "DATE=%y" -T "GENRE=%m" -8 -V %s
TOC of the extracted CD
Track | Start | Length | Start sector | End sector
---------------------------------------------------------
1 | 0:00.00 | 4:26.62 | 0 | 20011
2 | 4:26.62 | 5:56.38 | 20012 | 46749
3 | 10:23.25 | 4:21.52 | 46750 | 66376
Range status and errors
Selected range
Filename C:\Documents and Settings\Рабочий стол\deg\2000.02.16 - MYAKU [CDS]\MYAKU [CDS].wav
Peak level 99.7 %
Range quality 100.0 %
Test CRC BA1BC6A5
Copy CRC BA1BC6A5
Copy OK
No errors occurred
AccurateRip summary
Track 1 accurately ripped (confidence 1) [277B12F7]
Track 2 accurately ripped (confidence 1) [5E9D8EA9]
Track 3 accurately ripped (confidence 1) [4F39EC1B]
All tracks accurately ripped
End of status report

2000.06.07 - &#91;KR&#93;cube &#91;CDS&#93;

Catalog No.: AMCM-4479
Label: east west japan inc., a warner music group company
Total Time: 11:37
-Tracklist:
01. [KR]cube (4:12)
02. JEALOUS -reverse- (4:56)
03. [KR]cube -K.K. Vomit Mix- (2:28)

log

Exact Audio Copy V0.99 prebeta 5 from 4. May 2009
EAC extraction logfile from 2. August 2011, 20:18
Dir en grey / [KR]cube [CDS]
Used drive : PIONEER DVD-RW DVR-212 Adapter: 3 ID: 0
Read mode : Secure
Utilize accurate stream : Yes
Defeat audio cache : Yes
Make use of C2 pointers : No
Read offset correction : 48
Overread into Lead-In and Lead-Out : No
Fill up missing offset samples with silence : Yes
Delete leading and trailing silent blocks : No
Null samples used in CRC calculations : Yes
Used interface : Native Win32 interface for Win NT & 2000
Used output format : User Defined Encoder
Selected bitrate : 1024 kBit/s
Quality : High
Add ID3 tag : No
Command line compressor : C:\Program Files\Exact Audio Copy\Flac\flac.exe
Additional command line options : -T "DATE=%y" -T "GENRE=%m" -8 -V %s
TOC of the extracted CD
Track | Start | Length | Start sector | End sector
---------------------------------------------------------
1 | 0:00.00 | 4:12.17 | 0 | 18916
2 | 4:12.17 | 4:56.50 | 18917 | 41166
3 | 9:08.67 | 2:28.15 | 41167 | 52281
Range status and errors
Selected range
Filename C:\Documents and Settings\Рабочий стол\deg\2000.06.07 - [KR]cube [CDS]\[KR]cube [CDS].wav
Peak level 98.8 %
Range quality 100.0 %
Test CRC E1287A74
Copy CRC E1287A74
Copy OK
No errors occurred
AccurateRip summary
Track 1 not present in database
Track 2 not present in database
Track 3 not present in database
None of the tracks are present in the AccurateRip database
End of status report

2000.07.26 - TAIYO NO AO &#91;CDS&#93;

Catalog No.: AMCM-4490
Label: east west japan inc., a warner music group company
Total Time: 14:43
-Tracklist:
01. TAIYOU NO AO (6:05)
02. children (4:18)
03. TAIYOU NO AO -Mix®- (4:20)

log

Exact Audio Copy V0.99 prebeta 5 from 4. May 2009
EAC extraction logfile from 27. December 2010, 13:39
Dir en grey / Taiyou no ao [CDS]
Used drive : PIONEER DVD-RW DVR-216D Adapter: 3 ID: 0
Read mode : Secure
Utilize accurate stream : Yes
Defeat audio cache : Yes
Make use of C2 pointers : No
Read offset correction : 96
Overread into Lead-In and Lead-Out : No
Fill up missing offset samples with silence : Yes
Delete leading and trailing silent blocks : No
Null samples used in CRC calculations : Yes
Used interface : Native Win32 interface for Win NT & 2000
Used output format : User Defined Encoder
Selected bitrate : 128 kBit/s
Quality : High
Add ID3 tag : No
Command line compressor : C:\Program Files\Exact Audio Copy\Flac\flac.exe
Additional command line options : -T "DATE=%y" -T "GENRE=%m" -8 -V %s
TOC of the extracted CD
Track | Start | Length | Start sector | End sector
---------------------------------------------------------
1 | 0:00.00 | 6:05.50 | 0 | 27424
2 | 6:05.50 | 4:18.12 | 27425 | 46786
3 | 10:23.62 | 4:20.03 | 46787 | 66289
Range status and errors
Selected range
Filename E:\Jrock_Music\Dir en grey\Music\FLAC\2000 - Taiyou no ao [CDS]\Taiyou no ao [CDS].wav
Peak level 100.0 %
Range quality 100.0 %
Copy CRC 24CEF24D
Copy OK
No errors occurred
End of status report

2000.09.20 - MACABRE &#91;Album&#93;

Catalog No.: SFCD-0001
Label: FIREWALL DIV.
Total Time: 73:01
-Tracklist:
01. Deity (4:15)
02. MYAKU (4:05)
03. WAKE (5:12)
04. egnirys cimredopyh +) an injection (5:16)
05. Hydra (5:41)
06. HOTARUBI (6:06)
07. [KR]cube (4:09)
08. Berry (4:20)
09. MACABRE -sanagi no yume wa ageha no hane- (10:49)
10. audrey (4:33)
11. RASETSUKOKU (3:35)
12. ZAKURO (8:37)
13. TAIYOU NO AO (6:19)

log

Exact Audio Copy V0.99 prebeta 5 from 4. May 2009
EAC extraction logfile from 1. August 2011, 20:42
Dir en grey / MACABRE
Used drive : PIONEER DVD-RW DVR-212 Adapter: 3 ID: 0
Read mode : Secure
Utilize accurate stream : Yes
Defeat audio cache : Yes
Make use of C2 pointers : No
Read offset correction : 48
Overread into Lead-In and Lead-Out : No
Fill up missing offset samples with silence : Yes
Delete leading and trailing silent blocks : No
Null samples used in CRC calculations : Yes
Used interface : Native Win32 interface for Win NT & 2000
Used output format : User Defined Encoder
Selected bitrate : 1024 kBit/s
Quality : High
Add ID3 tag : No
Command line compressor : C:\Program Files\Exact Audio Copy\Flac\flac.exe
Additional command line options : -T "DATE=%y" -T "GENRE=%m" -8 -V %s
TOC of the extracted CD
Track | Start | Length | Start sector | End sector
---------------------------------------------------------
1 | 0:00.00 | 4:15.02 | 0 | 19126
2 | 4:15.02 | 4:05.23 | 19127 | 37524
3 | 8:20.25 | 5:12.50 | 37525 | 60974
4 | 13:33.00 | 5:16.62 | 60975 | 84736
5 | 18:49.62 | 5:41.68 | 84737 | 110379
6 | 24:31.55 | 6:06.15 | 110380 | 137844
7 | 30:37.70 | 4:09.10 | 137845 | 156529
8 | 34:47.05 | 4:20.00 | 156530 | 176029
9 | 39:07.05 | 10:49.62 | 176030 | 224766
10 | 49:56.67 | 4:33.18 | 224767 | 245259
11 | 54:30.10 | 3:35.05 | 245260 | 261389
12 | 58:05.15 | 8:37.17 | 261390 | 300181
13 | 66:42.32 | 6:19.05 | 300182 | 328611
Range status and errors
Selected range
Filename C:\Documents and Settings\Рабочий стол\deg\2000.09.20 - MACABRE\MACABRE.wav
Peak level 98.8 %
Range quality 100.0 %
Test CRC 9F6A0126
Copy CRC 9F6A0126
Copy OK
No errors occurred
AccurateRip summary
Track 1 accurately ripped (confidence 8) [026D337E]
Track 2 accurately ripped (confidence 8) [658D0A6F]
Track 3 accurately ripped (confidence 8) [9A8D9ACC]
Track 4 accurately ripped (confidence 8) [2067CA84]
Track 5 accurately ripped (confidence 8) [6E977B3F]
Track 6 accurately ripped (confidence 8) [8997C6BF]
Track 7 accurately ripped (confidence 8) [F8313371]
Track 8 accurately ripped (confidence 8) [149CA4A9]
Track 9 accurately ripped (confidence 8) [FFA52C67]
Track 10 accurately ripped (confidence 8) [605B8B86]
Track 11 accurately ripped (confidence 8) [A793FE8F]
Track 12 accurately ripped (confidence 8) [94ADB180]
Track 13 accurately ripped (confidence 8) [F35F632A]
All tracks accurately ripped
End of status report

2001.04.18 - ain't afraid to die &#91;CDS&#93;

Catalog No.: SFCD-0005
Label: FIREWALL DIV.
Total Time: 19:20
-Tracklist:
01. ain't afraid to die (7:16)
02. ain't afraid to die ~with frosted ambience~ (5:49)
03. ain't afraid to die Irresistible MIX (6:14)

log

Exact Audio Copy V0.99 prebeta 5 from 4. May 2009
EAC extraction logfile from 2. August 2011, 19:01
Dir en grey / ain't afraid to die [CDS]
Used drive : PIONEER DVD-RW DVR-212 Adapter: 3 ID: 0
Read mode : Secure
Utilize accurate stream : Yes
Defeat audio cache : Yes
Make use of C2 pointers : No
Read offset correction : 48
Overread into Lead-In and Lead-Out : No
Fill up missing offset samples with silence : Yes
Delete leading and trailing silent blocks : No
Null samples used in CRC calculations : Yes
Used interface : Native Win32 interface for Win NT & 2000
Used output format : User Defined Encoder
Selected bitrate : 1024 kBit/s
Quality : High
Add ID3 tag : No
Command line compressor : C:\Program Files\Exact Audio Copy\Flac\flac.exe
Additional command line options : -T "DATE=%y" -T "GENRE=%m" -8 -V %s
TOC of the extracted CD
Track | Start | Length | Start sector | End sector
---------------------------------------------------------
1 | 0:00.00 | 7:16.02 | 0 | 32701
2 | 7:16.02 | 5:49.58 | 32702 | 58934
3 | 13:05.60 | 6:14.65 | 58935 | 87049
4 | 21:52.50 | 8:26.48 | 98450 | 136447
Range status and errors
Selected range
Filename C:\Documents and Settings\Рабочий стол\deg\2001.04.18 - ain't afraid to die [CDS]\ain't afraid to die [CDS].wav
Peak level 98.8 %
Range quality 100.0 %
Test CRC 5D6DD87C
Copy CRC 5D6DD87C
Copy OK
No errors occurred
AccurateRip summary
Track 1 not present in database
Track 2 not present in database
Track 3 not present in database
None of the tracks are present in the AccurateRip database
End of status report

2001.08.22 - KAI REMIX 01 &#91;Remix Compilation&#93;

Catalog No.: SFCD-0006
Label: FIREWALL DIV.
Total Time: 71:19
-Tracklist:
01. Hydra Bizzout mix (6:08)
02. RASETSUKOKU Za downtown funkmaster remix (6:23)
03. TAIYOU NO AO -Mix®- (4:21)
04. 304 goushitsu, hakushi no sakura Sub Dub Mix (6:54)
05. ain't afraid to die ~with frosted ambience~ (5:47)
06. egnirys cimredopyh +) an injection PCM re-constructed attack (6:37)
07. MACABRE -sanagi no yume wa ageha no hane- Tears of scorpion mix (6:25)
08. MYAKU (8 1/2 convert) (4:24)
09. WAKE Susumu Yokota Remix (3:35)
10. ain't afraid to die Irresistible MIX (6:14)
11. raison detre NANAGO Mix (5:46)
12. [KR]cube -K.K. Vomit Mix- (2:30)
13. HOTARUBI THE NAME OF THE ROSE MIX (6:11)

log

В ЦЕЛЯХ ЭКОНОМИИ ЗНАКОВ СООБЩЕНИЯ ФАЙЛ -KAI- REMIX 01.log СМОТРИТЕ ВО ВТОРОМ СООБЩЕНИИ

2001.09.12 - FILTH &#91;CDS&#93;

Catalog No.: SFCD-0007
Label: FIREWALL DIV.
Total Time: 15:04
-Tracklist:
01. FILTH (4:58)
02. Gyakujou tannou Keloid milk (4:50)
03. FILTH kitabu keisatsu Part II (5:15)

log

Exact Audio Copy V0.99 prebeta 5 from 4. May 2009
EAC extraction logfile from 17. June 2010, 20:21
Dir en grey / FILTH [CDS]
Used drive : PIONEER DVD-RW DVR-216D Adapter: 3 ID: 0
Read mode : Secure
Utilize accurate stream : Yes
Defeat audio cache : Yes
Make use of C2 pointers : No
Read offset correction : 96
Overread into Lead-In and Lead-Out : No
Fill up missing offset samples with silence : Yes
Delete leading and trailing silent blocks : No
Null samples used in CRC calculations : Yes
Used interface : Native Win32 interface for Win NT & 2000
Used output format : User Defined Encoder
Selected bitrate : 768 kBit/s
Quality : High
Add ID3 tag : No
Command line compressor : C:\Program Files\Exact Audio Copy\FLAC\FLAC.EXE
Additional command line options : -T "DATE=%y" -T "GENRE=%m" -8 -V %s
TOC of the extracted CD
Track | Start | Length | Start sector | End sector
---------------------------------------------------------
1 | 0:00.00 | 4:58.55 | 0 | 22404
2 | 4:58.55 | 4:50.05 | 22405 | 44159
3 | 9:48.60 | 5:15.72 | 44160 | 67856
Range status and errors
Selected range
Filename C:\Documents and Settings\Мои документы\FILTH [CDS].wav
Peak level 100.0 %
Range quality 100.0 %
Test CRC BC2F881E
Copy CRC BC2F881E
Copy OK
No errors occurred
AccurateRip summary
Track 1 not present in database
Track 2 not present in database
Track 3 not present in database
None of the tracks are present in the AccurateRip database
End of status report

2001.11.14 - JESSICA &#91;CDS&#93;

Catalog No.: SFCD-0009
Label: FIREWALL DIV.
Total Time: 22:11
-Tracklist:
01. JESSICA (4:14)
02. 24ko shirida- (6:12)
03. 24ko shirida- GRENADE LAUNCH MIX ~16 Tickets Remix (7:38)
04. JESSICA (Demo Version) (4:07)

log

Exact Audio Copy V0.99 prebeta 5 from 4. May 2009
EAC extraction logfile from 2. August 2011, 18:26
Dir en grey / JESSICA [CDS]
Used drive : PIONEER DVD-RW DVR-212 Adapter: 3 ID: 0
Read mode : Secure
Utilize accurate stream : Yes
Defeat audio cache : Yes
Make use of C2 pointers : No
Read offset correction : 48
Overread into Lead-In and Lead-Out : No
Fill up missing offset samples with silence : Yes
Delete leading and trailing silent blocks : No
Null samples used in CRC calculations : Yes
Used interface : Native Win32 interface for Win NT & 2000
Used output format : User Defined Encoder
Selected bitrate : 1024 kBit/s
Quality : High
Add ID3 tag : No
Command line compressor : C:\Program Files\Exact Audio Copy\Flac\flac.exe
Additional command line options : -T "DATE=%y" -T "GENRE=%m" -8 -V %s
TOC of the extracted CD
Track | Start | Length | Start sector | End sector
---------------------------------------------------------
1 | 0:00.00 | 4:14.12 | 0 | 19061
2 | 4:14.12 | 6:12.18 | 19062 | 46979
3 | 10:26.30 | 7:38.15 | 46980 | 81344
4 | 18:04.45 | 4:07.15 | 81345 | 99884
Range status and errors
Selected range
Filename C:\Documents and Settings\Рабочий стол\deg\2001.11.14 - JESSICA [CDS]\JESSICA [CDS].wav
Peak level 97.2 %
Range quality 100.0 %
Test CRC 3A063EED
Copy CRC 3A063EED
Copy OK
No errors occurred
AccurateRip summary
Track 1 accurately ripped (confidence 2) [C4DDEEBD]
Track 2 accurately ripped (confidence 2) [61B2F0DA]
Track 3 accurately ripped (confidence 2) [8F865B2C]
Track 4 accurately ripped (confidence 2) [BBFF5645]
All tracks accurately ripped
End of status report

2001.12.19 - embryo &#91;CDS&#93;

Catalog No.: SFCD-0011
Label: FIREWALL DIV.
Total Time: 14:08
-Tracklist:
01. embryo (5:38)
02. ZOMBOID -rekishi mix- (4:27)
03. embryo uteute boogie woogie ereji (Vocalles Track) (4:01)

log

Exact Audio Copy V0.99 prebeta 5 from 4. May 2009
EAC extraction logfile from 2. August 2011, 18:49
Dir en grey / embryo [CDS]
Used drive : PIONEER DVD-RW DVR-212 Adapter: 3 ID: 0
Read mode : Secure
Utilize accurate stream : Yes
Defeat audio cache : Yes
Make use of C2 pointers : No
Read offset correction : 48
Overread into Lead-In and Lead-Out : No
Fill up missing offset samples with silence : Yes
Delete leading and trailing silent blocks : No
Null samples used in CRC calculations : Yes
Used interface : Native Win32 interface for Win NT & 2000
Used output format : User Defined Encoder
Selected bitrate : 1024 kBit/s
Quality : High
Add ID3 tag : No
Command line compressor : C:\Program Files\Exact Audio Copy\Flac\flac.exe
Additional command line options : -T "DATE=%y" -T "GENRE=%m" -8 -V %s
TOC of the extracted CD
Track | Start | Length | Start sector | End sector
---------------------------------------------------------
1 | 0:00.00 | 5:38.35 | 0 | 25384
2 | 5:38.35 | 4:27.72 | 25385 | 45481
3 | 10:06.32 | 4:01.60 | 45482 | 63616
Range status and errors
Selected range
Filename C:\Documents and Settings\Рабочий стол\deg\2001.12.19 - embryo [CDS]\embryo [CDS].wav
Peak level 97.2 %
Range quality 100.0 %
Test CRC B6303F8E
Copy CRC B6303F8E
Copy OK
No errors occurred
AccurateRip summary
Track 1 not present in database
Track 2 not present in database
Track 3 not present in database
None of the tracks are present in the AccurateRip database
End of status report

2002.01.30 - kisou &#91;Album&#93;

Catalog No.: SFCD-0012
Label: FIREWALL DIV.
Total Time: 70:04
-Tracklist:
01. -kigan- (4:05)
02. ZOMBOID (4:24)
03. 24ko shirida- (6:08)
04. FILTH (4:55)
05. Bottom of the death valley (5:55)
06. embryo (5:40)
07. 'shinsou' (2:06)
08. Gyakujou tannou Keloid milk (4:43)
09. The Domestic Fucker Family (3:08)
10. undecided (4:53)
11. -mushi- (6:28)
12. 'shinsou' (0:59)
13. JESSICA (4:13)
14. -karasu- (5:26)
15. pinku kira- (3:51)
16. 'shinsou' (3:03)

log

Exact Audio Copy V0.99 prebeta 5 from 4. May 2009
EAC extraction logfile from 1. August 2011, 15:34
Dir en grey / kisou
Used drive : PIONEER DVD-RW DVR-212 Adapter: 3 ID: 0
Read mode : Secure
Utilize accurate stream : Yes
Defeat audio cache : Yes
Make use of C2 pointers : No
Read offset correction : 48
Overread into Lead-In and Lead-Out : No
Fill up missing offset samples with silence : Yes
Delete leading and trailing silent blocks : No
Null samples used in CRC calculations : Yes
Used interface : Native Win32 interface for Win NT & 2000
Used output format : User Defined Encoder
Selected bitrate : 1024 kBit/s
Quality : High
Add ID3 tag : No
Command line compressor : C:\Program Files\Exact Audio Copy\Flac\flac.exe
Additional command line options : -T "DATE=%y" -T "GENRE=%m" -8 -V %s
TOC of the extracted CD
Track | Start | Length | Start sector | End sector
---------------------------------------------------------
1 | 0:00.00 | 4:05.40 | 0 | 18414
2 | 4:05.40 | 4:24.35 | 18415 | 38249
3 | 8:30.00 | 6:08.70 | 38250 | 65919
4 | 14:38.70 | 4:55.07 | 65920 | 88051
5 | 19:34.02 | 5:55.05 | 88052 | 114681
6 | 25:29.07 | 5:40.63 | 114682 | 140244
7 | 31:09.70 | 2:06.25 | 140245 | 149719
8 | 33:16.20 | 4:43.17 | 149720 | 170961
9 | 37:59.37 | 3:08.15 | 170962 | 185076
10 | 41:07.52 | 4:53.53 | 185077 | 207104
11 | 46:01.30 | 6:28.17 | 207105 | 236221
12 | 52:29.47 | 0:59.73 | 236222 | 240719
13 | 53:29.45 | 4:13.40 | 240720 | 259734
14 | 57:43.10 | 5:26.32 | 259735 | 284216
15 | 63:09.42 | 3:51.28 | 284217 | 301569
16 | 67:00.70 | 3:03.67 | 301570 | 315361
Range status and errors
Selected range
Filename C:\Documents and Settings\Рабочий стол\deg\2002.01.30 - KISOU\kisou.wav
Peak level 97.2 %
Range quality 100.0 %
Test CRC FB6B78FD
Copy CRC FB6B78FD
Copy OK
No errors occurred
AccurateRip summary
Track 1 accurately ripped (confidence 2) [1289B220]
Track 2 accurately ripped (confidence 2) [74D683D1]
Track 3 accurately ripped (confidence 2) [7D5F5FC4]
Track 4 accurately ripped (confidence 2) [156F936D]
Track 5 accurately ripped (confidence 2) [BC8E96F9]
Track 6 accurately ripped (confidence 2) [DA483F52]
Track 7 accurately ripped (confidence 2) [1502B3EC]
Track 8 accurately ripped (confidence 2) [1A465E96]
Track 9 accurately ripped (confidence 2) [5D137104]
Track 10 accurately ripped (confidence 2) [DA76D005]
Track 11 accurately ripped (confidence 2) [86C6311C]
Track 12 accurately ripped (confidence 2) [E356E82B]
Track 13 accurately ripped (confidence 2) [1652541F]
Track 14 accurately ripped (confidence 2) [3B442742]
Track 15 accurately ripped (confidence 2) [39EE720B]
Track 16 accurately ripped (confidence 2) [06853F47]
All tracks accurately ripped
End of status report

2002.07.31 - Child prey &#91;CDS&#93;

Catalog No.: SFCD-0014
Label: FIREWALL DIV.
Total Time: 18:49
-Tracklist:
01. Child prey (3:51)
02. -kigan- [LIVE] (4:31)
03. Hydra [LIVE] (5:46)
04. RASETSUKOKU [LIVE] (4:40)

log

Exact Audio Copy V0.99 prebeta 5 from 4. May 2009
EAC extraction logfile from 1. August 2011, 21:36
Dir en grey / Child prey [CDS]
Used drive : PIONEER DVD-RW DVR-212 Adapter: 3 ID: 0
Read mode : Secure
Utilize accurate stream : Yes
Defeat audio cache : Yes
Make use of C2 pointers : No
Read offset correction : 48
Overread into Lead-In and Lead-Out : No
Fill up missing offset samples with silence : Yes
Delete leading and trailing silent blocks : No
Null samples used in CRC calculations : Yes
Used interface : Native Win32 interface for Win NT & 2000
Used output format : User Defined Encoder
Selected bitrate : 1024 kBit/s
Quality : High
Add ID3 tag : No
Command line compressor : C:\Program Files\Exact Audio Copy\Flac\flac.exe
Additional command line options : -T "DATE=%y" -T "GENRE=%m" -8 -V %s
TOC of the extracted CD
Track | Start | Length | Start sector | End sector
---------------------------------------------------------
1 | 0:00.00 | 3:51.50 | 0 | 17374
2 | 3:51.50 | 4:31.10 | 17375 | 37709
3 | 8:22.60 | 5:46.10 | 37710 | 63669
4 | 14:08.70 | 4:40.17 | 63670 | 84686
Range status and errors
Selected range
Filename C:\Documents and Settings\Рабочий стол\deg\2002.07.31 - Child prey [CDS]\Child prey [CDS].wav
Peak level 97.2 %
Range quality 100.0 %
Test CRC 310FC63D
Copy CRC 310FC63D
Copy OK
No errors occurred
AccurateRip summary
Track 1 not present in database
Track 2 not present in database
Track 3 not present in database
Track 4 not present in database
None of the tracks are present in the AccurateRip database
End of status report

2002.07.31 - six Ugly &#91;EP&#93;

Catalog No.: SFCD-0015
Label: FIREWALL DIV.
Total Time: 25:56
-Tracklist:
01. Mr.NEWSMAN (3:52)
02. Ugly (4:54)
03. HADES (3:24)
04. umbrella (4:06)
05. children (4:01)
06. byou[]shin (5:37)

log

Exact Audio Copy V0.99 prebeta 5 from 4. May 2009
EAC extraction logfile from 1. August 2011, 18:10
Dir en grey / six Ugly [EP]
Used drive : PIONEER DVD-RW DVR-212 Adapter: 3 ID: 0
Read mode : Secure
Utilize accurate stream : Yes
Defeat audio cache : Yes
Make use of C2 pointers : No
Read offset correction : 48
Overread into Lead-In and Lead-Out : No
Fill up missing offset samples with silence : Yes
Delete leading and trailing silent blocks : No
Null samples used in CRC calculations : Yes
Used interface : Native Win32 interface for Win NT & 2000
Used output format : User Defined Encoder
Selected bitrate : 1024 kBit/s
Quality : High
Add ID3 tag : No
Command line compressor : C:\Program Files\Exact Audio Copy\Flac\flac.exe
Additional command line options : -T "DATE=%y" -T "GENRE=%m" -8 -V %s
TOC of the extracted CD
Track | Start | Length | Start sector | End sector
---------------------------------------------------------
1 | 0:00.00 | 3:52.12 | 0 | 17411
2 | 3:52.12 | 4:54.48 | 17412 | 39509
3 | 8:46.60 | 3:24.00 | 39510 | 54809
4 | 12:10.60 | 4:06.20 | 54810 | 73279
5 | 16:17.05 | 4:01.60 | 73280 | 91414
6 | 20:18.65 | 5:37.70 | 91415 | 116759
Range status and errors
Selected range
Filename C:\Documents and Settings\Рабочий стол\deg\2002.07.31 - six Ugly [EP]\six Ugly [EP].wav
Peak level 97.2 %
Range quality 100.0 %
Test CRC 4B45ABC4
Copy CRC 4B45ABC4
Copy OK
No errors occurred
AccurateRip summary
Track 1 accurately ripped (confidence 4) [C1D73254]
Track 2 accurately ripped (confidence 4) [9E4B982E]
Track 3 accurately ripped (confidence 3) [BD404A95]
Track 4 accurately ripped (confidence 4) [502F5F7F]
Track 5 accurately ripped (confidence 4) [1EA1D2A6]
Track 6 accurately ripped (confidence 3) [965DB604]
All tracks accurately ripped
End of status report

2003.01.22 - DRAIN AWAY &#91;CDS&#93;

Catalog No.: SFCD-0016
Label: FIREWALL DIV.
Total Time: 20:43
-Tracklist:
01. DRAIN AWAY (4:05)
02. DRAIN AWAY -NEO TOKYO TRANS- (6:37)
03. Gyakujou tannou Keloid milk (plucking Mr: NEWSMAN) -NEW JAP MIX- (4:53)
04. JESSICA -wave mix- (5:06)

log

Exact Audio Copy V0.99 prebeta 5 from 4. May 2009
EAC extraction logfile from 1. August 2011, 21:22
Dir en grey / DRAIN AWAY [CDS]
Used drive : PIONEER DVD-RW DVR-212 Adapter: 3 ID: 0
Read mode : Secure
Utilize accurate stream : Yes
Defeat audio cache : Yes
Make use of C2 pointers : No
Read offset correction : 48
Overread into Lead-In and Lead-Out : No
Fill up missing offset samples with silence : Yes
Delete leading and trailing silent blocks : No
Null samples used in CRC calculations : Yes
Used interface : Native Win32 interface for Win NT & 2000
Used output format : User Defined Encoder
Selected bitrate : 1024 kBit/s
Quality : High
Add ID3 tag : No
Command line compressor : C:\Program Files\Exact Audio Copy\Flac\flac.exe
Additional command line options : -T "DATE=%y" -T "GENRE=%m" -8 -V %s
TOC of the extracted CD
Track | Start | Length | Start sector | End sector
---------------------------------------------------------
1 | 0:00.00 | 4:05.72 | 0 | 18446
2 | 4:05.72 | 6:37.03 | 18447 | 48224
3 | 10:43.00 | 4:53.57 | 48225 | 70256
4 | 15:36.57 | 5:06.33 | 70257 | 93239
Range status and errors
Selected range
Filename C:\Documents and Settings\Рабочий стол\deg\2003.01.22 - DRAIN AWAY [CDS]\DRAIN AWAY [CDS].wav
Peak level 97.2 %
Range quality 100.0 %
Test CRC 74E773A9
Copy CRC 74E773A9
Copy OK
No errors occurred
AccurateRip summary
Track 1 not present in database
Track 2 not present in database
Track 3 not present in database
Track 4 not present in database
None of the tracks are present in the AccurateRip database
End of status report

2003.04.23 - KASUMI &#91;CDS&#93;

Catalog No.: SFCD-0017
Label: FIREWALL DIV.
Total Time: 13:54
-Tracklist:
01. KASUMI (4:19)
02. FUKAI (5:20)
03. umbrella [LIVE] (4:15)

log

Exact Audio Copy V0.99 prebeta 5 from 4. May 2009
EAC extraction logfile from 1. August 2011, 21:11
Dir en grey / KASUMI [CDS]
Used drive : PIONEER DVD-RW DVR-212 Adapter: 3 ID: 0
Read mode : Secure
Utilize accurate stream : Yes
Defeat audio cache : Yes
Make use of C2 pointers : No
Read offset correction : 48
Overread into Lead-In and Lead-Out : No
Fill up missing offset samples with silence : Yes
Delete leading and trailing silent blocks : No
Null samples used in CRC calculations : Yes
Used interface : Native Win32 interface for Win NT & 2000
Used output format : User Defined Encoder
Selected bitrate : 1024 kBit/s
Quality : High
Add ID3 tag : No
Command line compressor : C:\Program Files\Exact Audio Copy\Flac\flac.exe
Additional command line options : -T "DATE=%y" -T "GENRE=%m" -8 -V %s
TOC of the extracted CD
Track | Start | Length | Start sector | End sector
---------------------------------------------------------
1 | 0:00.00 | 4:19.00 | 0 | 19424
2 | 4:19.00 | 5:20.00 | 19425 | 43424
3 | 9:39.00 | 4:15.01 | 43425 | 62550
4 | 16:26.01 | 5:38.30 | 73951 | 99330
Range status and errors
Selected range
Filename C:\Documents and Settings\Рабочий стол\deg\2003.04.23 - KASUMI [CDS]\KASUMI [CDS].wav
Peak level 100.0 %
Range quality 100.0 %
Test CRC 2DAD21AA
Copy CRC 2DAD21AA
Copy OK
No errors occurred
AccurateRip summary
Track 1 not present in database
Track 2 not present in database
Track 3 not present in database
None of the tracks are present in the AccurateRip database
End of status report

2003.09.10 - VULGAR &#91;Album&#93;

Catalog No.: SFCD-0019
Label: FIREWALL DIV.
Total Time: 57:08
-Tracklist:
01. audience KILLER LOOP (3:39)
02. THE IIID EMPIRE (3:05)
03. INCREASE BLUE (3:46)
04. SHOKUBENI (4:22)
05. SAJOU NO UTA (3:14)
06. RED...[em] (5:01)
07. ASUNAKI KOUFUKU, KOENAKI ASU (3:31)
08. MARMALADE CHAINSAW (4:13)
09. KASUMI (4:20)
10. Я TO THE CORE (1:47)
11. DRAIN AWAY (4:06)
12. NEW AGE CULTURE (3:19)
13. OBSCURE (3:59)
14. CHILD PREY (3:52)
15. AMBER (4:48)

log

Exact Audio Copy V0.99 prebeta 5 from 4. May 2009
EAC extraction logfile from 4. June 2010, 22:54
Dir en grey / VULGAR
Used drive : PIONEER DVD-RW DVR-216D Adapter: 3 ID: 0
Read mode : Secure
Utilize accurate stream : Yes
Defeat audio cache : Yes
Make use of C2 pointers : No
Read offset correction : 96
Overread into Lead-In and Lead-Out : No
Fill up missing offset samples with silence : Yes
Delete leading and trailing silent blocks : No
Null samples used in CRC calculations : Yes
Used interface : Native Win32 interface for Win NT & 2000
Used output format : User Defined Encoder
Selected bitrate : 768 kBit/s
Quality : High
Add ID3 tag : No
Command line compressor : C:\Program Files\Exact Audio Copy\FLAC\FLAC.EXE
Additional command line options : -T "DATE=%y" -T "GENRE=%m" -8 -V %s
TOC of the extracted CD
Track | Start | Length | Start sector | End sector
---------------------------------------------------------
1 | 0:00.00 | 3:39.61 | 0 | 16485
2 | 3:39.61 | 3:05.44 | 16486 | 30404
3 | 6:45.30 | 3:46.45 | 30405 | 47399
4 | 10:32.00 | 4:22.48 | 47400 | 67097
5 | 14:54.48 | 3:14.57 | 67098 | 81704
6 | 18:09.30 | 5:01.15 | 81705 | 104294
7 | 23:10.45 | 3:31.11 | 104295 | 120130
8 | 26:41.56 | 4:13.10 | 120131 | 139115
9 | 30:54.66 | 4:20.49 | 139116 | 158664
10 | 35:15.40 | 1:47.55 | 158665 | 166744
11 | 37:03.20 | 4:06.03 | 166745 | 185197
12 | 41:09.23 | 3:19.14 | 185198 | 200136
13 | 44:28.37 | 3:59.38 | 200137 | 218099
14 | 48:28.00 | 3:52.22 | 218100 | 235521
15 | 52:20.22 | 4:48.19 | 235522 | 257140
Range status and errors
Selected range
Filename C:\Documents and Settings\Мои документы\VULGAR.wav
Peak level 100.0 %
Range quality 99.9 %
Test CRC BE3BB4E6
Copy CRC BE3BB4E6
Copy OK
No errors occurred
AccurateRip summary
Track 1 accurately ripped (confidence 3) [1842AABD]
Track 2 accurately ripped (confidence 3) [BFDE27FA]
Track 3 accurately ripped (confidence 3) [85233541]
Track 4 accurately ripped (confidence 3) [6E72484F]
Track 5 accurately ripped (confidence 3) [9121E121]
Track 6 accurately ripped (confidence 3) [8CEF048A]
Track 7 accurately ripped (confidence 3) [8F64CC9D]
Track 8 accurately ripped (confidence 3) [83BFCBB0]
Track 9 accurately ripped (confidence 3) [2572057F]
Track 10 accurately ripped (confidence 3) [F3610F3E]
Track 11 accurately ripped (confidence 3) [3402F1C9]
Track 12 accurately ripped (confidence 3) [C1A9F376]
Track 13 accurately ripped (confidence 3) [A504D338]
Track 14 accurately ripped (confidence 3) [A58E43C5]
Track 15 accurately ripped (confidence 2) [8CFB5F0F]
All tracks accurately ripped
End of status report

2004.03.17 - THE FINAL &#91;CDS&#93;

Catalog No.: SFCD-0024
Label: FIREWALL DIV.
Total Time: 16:16
-Tracklist:
01. THE FINAL (4:17)
02. INCREASE BLUE [LIVE] (3:39)
03. RED...[em] [LIVE] (5:05)
04. THE IIID EMPIRE [LIVE] (3:14)

log

Exact Audio Copy V0.99 prebeta 5 from 4. May 2009
EAC extraction logfile from 1. August 2011, 17:39
Dir en grey / THE FINAL [CDS]
Used drive : PIONEER DVD-RW DVR-212 Adapter: 3 ID: 0
Read mode : Secure
Utilize accurate stream : Yes
Defeat audio cache : Yes
Make use of C2 pointers : No
Read offset correction : 48
Overread into Lead-In and Lead-Out : No
Fill up missing offset samples with silence : Yes
Delete leading and trailing silent blocks : No
Null samples used in CRC calculations : Yes
Used interface : Native Win32 interface for Win NT & 2000
Used output format : User Defined Encoder
Selected bitrate : 1024 kBit/s
Quality : High
Add ID3 tag : No
Command line compressor : C:\Program Files\Exact Audio Copy\Flac\flac.exe
Additional command line options : -T "DATE=%y" -T "GENRE=%m" -8 -V %s
TOC of the extracted CD
Track | Start | Length | Start sector | End sector
---------------------------------------------------------
1 | 0:00.00 | 4:17.27 | 0 | 19301
2 | 4:17.27 | 3:39.28 | 19302 | 35754
3 | 7:56.55 | 5:05.32 | 35755 | 58661
4 | 13:02.12 | 3:14.29 | 58662 | 73240
Range status and errors
Selected range
Filename C:\Documents and Settings\Рабочий стол\deg\2004.03.17 - THE FINAL [CDS]\THE FINAL [CDS].wav
Peak level 100.0 %
Range quality 100.0 %
Test CRC 19990680
Copy CRC 19990680
Copy OK
No errors occurred
AccurateRip summary
Track 1 accurately ripped (confidence 1) [44F84705]
Track 2 accurately ripped (confidence 1) [2DDF3D2D]
Track 3 accurately ripped (confidence 1) [AA8CB094]
Track 4 accurately ripped (confidence 1) [9E61AE94]
All tracks accurately ripped
End of status report

2004.07.14 - -saku- &#91;CDS&#93;

Catalog No.: SFCD-0030
Label: FIREWALL DIV.
Total Time: 13:57
-Tracklist:
01. MACHIAVELLISM (3:12)
02. -saku- (2:58)
03. G.D.S. (7:46)

log

Exact Audio Copy V0.99 prebeta 5 from 4. May 2009
EAC extraction logfile from 1. August 2011, 17:54
Dir en grey / -saku- [CDS]
Used drive : PIONEER DVD-RW DVR-212 Adapter: 3 ID: 0
Read mode : Secure
Utilize accurate stream : Yes
Defeat audio cache : Yes
Make use of C2 pointers : No
Read offset correction : 48
Overread into Lead-In and Lead-Out : No
Fill up missing offset samples with silence : Yes
Delete leading and trailing silent blocks : No
Null samples used in CRC calculations : Yes
Used interface : Native Win32 interface for Win NT & 2000
Used output format : User Defined Encoder
Selected bitrate : 1024 kBit/s
Quality : High
Add ID3 tag : No
Command line compressor : C:\Program Files\Exact Audio Copy\Flac\flac.exe
Additional command line options : -T "DATE=%y" -T "GENRE=%m" -8 -V %s
TOC of the extracted CD
Track | Start | Length | Start sector | End sector
---------------------------------------------------------
1 | 0:00.00 | 3:12.41 | 0 | 14440
2 | 3:12.41 | 2:58.11 | 14441 | 27801
3 | 6:10.52 | 7:46.57 | 27802 | 62808
Range status and errors
Selected range
Filename C:\Documents and Settings\Рабочий стол\deg\2004.07.14 - -saku- [CDS]\-saku- [CDS].wav
Peak level 100.0 %
Range quality 99.9 %
Test CRC BD2802B5
Copy CRC BD2802B5
Copy OK
No errors occurred
AccurateRip summary
Track 1 accurately ripped (confidence 1) [8B5FA844]
Track 2 accurately ripped (confidence 1) [2163F398]
Track 3 accurately ripped (confidence 1) [32C3FB7E]
All tracks accurately ripped
End of status report

2005.03.09 - Withering to death. &#91;Album&#93;

Catalog No.: SFCD-0035
Label: FIREWALL DIV.
Total Time: 51:20
-Tracklist:
01. Merciless Cult (2:55)
02. C (3:30)
03. -saku- (2:57)
04. KODOKU NI SHISU, YUENI KODOKU. (3:25)
05. ITOSHISA WA FUHAI NI TSUKI (4:15)
06. Jesus Christ R'n R (4:00)
07. GARBAGE (2:49)
08. Machiavellism (3:16)
09. dead tree (4:50)
10. THE FINAL (4:13)
11. Beautiful Dirt (2:33)
12. Spilled Milk (3:44)
13. HIGEKI WA MABUTA WO OROSHITA YASASHIKI UTSU (5:08)
14. KODOU (3:39)

log

Exact Audio Copy V0.99 prebeta 5 from 4. May 2009
EAC extraction logfile from 7. June 2010, 23:27
Dir en grey / Withering to death.
Used drive : PIONEER DVD-RW DVR-216D Adapter: 3 ID: 0
Read mode : Secure
Utilize accurate stream : Yes
Defeat audio cache : Yes
Make use of C2 pointers : No
Read offset correction : 96
Overread into Lead-In and Lead-Out : No
Fill up missing offset samples with silence : Yes
Delete leading and trailing silent blocks : No
Null samples used in CRC calculations : Yes
Used interface : Native Win32 interface for Win NT & 2000
Used output format : User Defined Encoder
Selected bitrate : 768 kBit/s
Quality : High
Add ID3 tag : No
Command line compressor : C:\Program Files\Exact Audio Copy\FLAC\FLAC.EXE
Additional command line options : -T "DATE=%y" -T "GENRE=%m" -8 -V %s
TOC of the extracted CD
Track | Start | Length | Start sector | End sector
---------------------------------------------------------
1 | 0:00.00 | 2:55.52 | 0 | 13176
2 | 2:55.52 | 3:30.05 | 13177 | 28931
3 | 6:25.57 | 2:57.03 | 28932 | 42209
4 | 9:22.60 | 3:25.60 | 42210 | 57644
5 | 12:48.45 | 4:15.26 | 57645 | 76795
6 | 17:03.71 | 4:00.32 | 76796 | 94827
7 | 21:04.28 | 2:49.55 | 94828 | 107557
8 | 23:54.08 | 3:16.21 | 107558 | 122278
9 | 27:10.29 | 4:50.49 | 122279 | 144077
10 | 32:01.03 | 4:13.38 | 144078 | 163090
11 | 36:14.41 | 2:33.12 | 163091 | 174577
12 | 38:47.53 | 3:44.24 | 174578 | 191401
13 | 42:32.02 | 5:08.61 | 191402 | 214562
14 | 47:40.63 | 3:39.30 | 214563 | 231017
Range status and errors
Selected range
Filename C:\Documents and Settings\Мои документы\Withering to death..wav
Peak level 100.0 %
Range quality 99.9 %
Test CRC 4FD0486F
Copy CRC 4FD0486F
Copy OK
No errors occurred
AccurateRip summary
Track 1 accurately ripped (confidence 14) [7CE959BA]
Track 2 accurately ripped (confidence 14) [D197165C]
Track 3 accurately ripped (confidence 13) [9CFF3623]
Track 4 accurately ripped (confidence 13) [2D123AC7]
Track 5 accurately ripped (confidence 13) [87C8B7FF]
Track 6 accurately ripped (confidence 13) [9794AF4A]
Track 7 accurately ripped (confidence 13) [56C72AA4]
Track 8 accurately ripped (confidence 13) [77DDB104]
Track 9 accurately ripped (confidence 13) [52D72494]
Track 10 accurately ripped (confidence 13) [3051C59E]
Track 11 accurately ripped (confidence 14) [940BB643]
Track 12 accurately ripped (confidence 12) [3820070F]
Track 13 accurately ripped (confidence 13) [2FC7BE1D]
Track 14 accurately ripped (confidence 14) [D5DAF34A]
All tracks accurately ripped
End of status report

2005.09.21 - CLEVER SLEAZOID &#91;CDS&#93;

Catalog No.: SFCD-0039
Label: FIREWALL DIV.
Total Time: 14:39
-Tracklist:
01. CLEVER SLEAZOID (2:55)
02. C [LIVE] (3:44)
03. GARBAGE [LIVE] (2:57)
04. dead tree [LIVE] (5:02)

log

Exact Audio Copy V0.99 prebeta 5 from 4. May 2009
EAC extraction logfile from 31. July 2011, 17:42
Dir en grey / CLEVER SLEAZOID [CDS]
Used drive : PIONEER DVD-RW DVR-212 Adapter: 3 ID: 0
Read mode : Secure
Utilize accurate stream : Yes
Defeat audio cache : Yes
Make use of C2 pointers : No
Read offset correction : 48
Overread into Lead-In and Lead-Out : No
Fill up missing offset samples with silence : Yes
Delete leading and trailing silent blocks : No
Null samples used in CRC calculations : Yes
Used interface : Native Win32 interface for Win NT & 2000
Used output format : User Defined Encoder
Selected bitrate : 1024 kBit/s
Quality : High
Add ID3 tag : No
Command line compressor : C:\Program Files\Exact Audio Copy\Flac\flac.exe
Additional command line options : -T "DATE=%y" -T "GENRE=%m" -8 -V %s
TOC of the extracted CD
Track | Start | Length | Start sector | End sector
---------------------------------------------------------
1 | 0:00.00 | 2:55.00 | 0 | 13124
2 | 2:55.00 | 3:44.00 | 13125 | 29924
3 | 6:39.00 | 2:57.74 | 29925 | 43273
4 | 9:36.74 | 5:02.46 | 43274 | 65969
Range status and errors
Selected range
Filename C:\Documents and Settings\Рабочий стол\deg\2005.09.21 - CLEVER SLEAZOID [CDS]\CLEVER SLEAZOID [CDS].wav
Peak level 100.0 %
Range quality 100.0 %
Test CRC CF8C2B69
Copy CRC CF8C2B69
Copy OK
No errors occurred
End of status report

2006.07.26 - RYOUJOKU NO AME &#91;CDS&#93;

Catalog No.: SFCD-0042
Label: FIREWALL DIV.
Total Time: 18:43
-Tracklist:
01. RYOUJOKU NO AME (4:08)
02. THE FINAL [LIVE] (4:40)
03. HIGEKI HA MABUTA WO OROSHITA YASASHIKI UTSU [LIVE] (5:29)
04. Mr.NEWSMAN [LIVE] (4:25)

log

Exact Audio Copy V0.99 prebeta 5 from 4. May 2009
EAC extraction logfile from 31. July 2011, 17:54
Dir en grey / RYOUJOKU NO AME [CDS]
Used drive : PIONEER DVD-RW DVR-212 Adapter: 3 ID: 0
Read mode : Secure
Utilize accurate stream : Yes
Defeat audio cache : Yes
Make use of C2 pointers : No
Read offset correction : 48
Overread into Lead-In and Lead-Out : No
Fill up missing offset samples with silence : Yes
Delete leading and trailing silent blocks : No
Null samples used in CRC calculations : Yes
Used interface : Native Win32 interface for Win NT & 2000
Used output format : User Defined Encoder
Selected bitrate : 1024 kBit/s
Quality : High
Add ID3 tag : No
Command line compressor : C:\Program Files\Exact Audio Copy\Flac\flac.exe
Additional command line options : -T "DATE=%y" -T "GENRE=%m" -8 -V %s
TOC of the extracted CD
Track | Start | Length | Start sector | End sector
---------------------------------------------------------
1 | 0:00.00 | 4:08.68 | 0 | 18667
2 | 4:08.68 | 4:40.11 | 18668 | 39678
3 | 8:49.04 | 5:29.07 | 39679 | 64360
4 | 14:18.11 | 4:25.31 | 64361 | 84266
Range status and errors
Selected range
Filename C:\Documents and Settings\Рабочий стол\deg\2006.07.26 - RYOUJOKU NO AME [CDS]\RYOUJOKU NO AME [CDS].wav
Peak level 100.0 %
Range quality 100.0 %
Test CRC 588129EA
Copy CRC 588129EA
Copy OK
No errors occurred
End of status report

2006.11.15 - Agitated Screams of Maggots &#91;CDS&#93;

Catalog No.: SFCD-0046
Label: FIREWALL DIV.
Total Time: 14:44
-Tracklist:
01. Agitated Screams of Maggots (2:59)
02. KODOKU NI SHISU, YUENI KODOKU. [LIVE] (3:52)
03. Spilled Milk [LIVE] (3:57)
04. OBSCURE [LIVE] (3:55)

log

Exact Audio Copy V0.99 prebeta 5 from 4. May 2009
EAC extraction logfile from 31. July 2011, 18:08
Dir en grey / Agitated Screams of Maggots [CDS]
Used drive : PIONEER DVD-RW DVR-212 Adapter: 3 ID: 0
Read mode : Secure
Utilize accurate stream : Yes
Defeat audio cache : Yes
Make use of C2 pointers : No
Read offset correction : 48
Overread into Lead-In and Lead-Out : No
Fill up missing offset samples with silence : Yes
Delete leading and trailing silent blocks : No
Null samples used in CRC calculations : Yes
Used interface : Native Win32 interface for Win NT & 2000
Used output format : User Defined Encoder
Selected bitrate : 1024 kBit/s
Quality : High
Add ID3 tag : No
Command line compressor : C:\Program Files\Exact Audio Copy\Flac\flac.exe
Additional command line options : -T "DATE=%y" -T "GENRE=%m" -8 -V %s
TOC of the extracted CD
Track | Start | Length | Start sector | End sector
---------------------------------------------------------
1 | 0:00.00 | 2:59.22 | 0 | 13446
2 | 2:59.22 | 3:52.39 | 13447 | 30885
3 | 6:51.61 | 3:57.59 | 30886 | 48719
4 | 10:49.45 | 3:55.06 | 48720 | 66350
Range status and errors
Selected range
Filename C:\Documents and Settings\Рабочий стол\deg\2006.11.15 - Agitated Screams of Maggots [CDS]\Agitated Screams of Maggots [CDS].wav
Peak level 100.0 %
Range quality 100.0 %
Test CRC 96BC7301
Copy CRC 96BC7301
Copy OK
No errors occurred
End of status report

2007.02.07 - THE MARROW OF A BONE &#91;Album&#93; 2CD - Special Limited Version

Catalog No.: SFCD-0048
Label: FIREWALL DIV.
Total Time: 50:05
-Tracklist:
01. CONCEIVED SORROW (4:49)
02. LIE BURED WITH A VENGEANCE (2:43)
03. THE FATAL BELIEVER (3:10)
04. AGITATED SCREAMS OF MAGGOTS (2:56)
05. GRIEF (3:37)
06. RYOUJOKU NO AME (4:02)
07. DISABLED COMPLEXES (3:56)
08. ROOTING ROOT (4:45)
09. NAMAMEKASHIKI ANSOKU, TAMERAI NI HOHOEMI (4:37)
10. THE PLEDGE (3:55)
11. REPETITION OF HATRED (4:32)
12. THE DEEPER VILENESS (3:46)
13. CLEVER SLEAZOID (3:12)

log

Exact Audio Copy V0.99 prebeta 5 from 4. May 2009
EAC extraction logfile from 31. July 2011, 18:34
Dir en grey / THE MARROW OF A BONE
Used drive : PIONEER DVD-RW DVR-212 Adapter: 3 ID: 0
Read mode : Secure
Utilize accurate stream : Yes
Defeat audio cache : Yes
Make use of C2 pointers : No
Read offset correction : 48
Overread into Lead-In and Lead-Out : No
Fill up missing offset samples with silence : Yes
Delete leading and trailing silent blocks : No
Null samples used in CRC calculations : Yes
Used interface : Native Win32 interface for Win NT & 2000
Used output format : User Defined Encoder
Selected bitrate : 1024 kBit/s
Quality : High
Add ID3 tag : No
Command line compressor : C:\Program Files\Exact Audio Copy\Flac\flac.exe
Additional command line options : -T "DATE=%y" -T "GENRE=%m" -8 -V %s
TOC of the extracted CD
Track | Start | Length | Start sector | End sector
---------------------------------------------------------
1 | 0:00.00 | 4:49.25 | 0 | 21699
2 | 4:49.25 | 2:43.00 | 21700 | 33924
3 | 7:32.25 | 3:10.45 | 33925 | 48219
4 | 10:42.70 | 2:56.45 | 48220 | 61464
5 | 13:39.40 | 3:37.68 | 61465 | 77807
6 | 17:17.33 | 4:02.67 | 77808 | 96024
7 | 21:20.25 | 3:56.10 | 96025 | 113734
8 | 25:16.35 | 4:45.25 | 113735 | 135134
9 | 30:01.60 | 4:37.53 | 135135 | 155962
10 | 34:39.38 | 3:55.12 | 155963 | 173599
11 | 38:34.50 | 4:32.35 | 173600 | 194034
12 | 43:07.10 | 3:46.05 | 194035 | 210989
13 | 46:53.15 | 3:12.08 | 210990 | 225397
Range status and errors
Selected range
Filename C:\Documents and Settings\Рабочий стол\deg\2007.02.07 - THE MARROW OF A BONE\THE MARROW OF A BONE.wav
Peak level 99.3 %
Range quality 100.0 %
Test CRC 1B9E8679
Copy CRC 1B9E8679
Copy OK
No errors occurred
AccurateRip summary
Track 1 accurately ripped (confidence 14) [858B3729]
Track 2 accurately ripped (confidence 13) [31F903E0]
Track 3 accurately ripped (confidence 14) [B180F2BE]
Track 4 accurately ripped (confidence 14) [629DD5F9]
Track 5 accurately ripped (confidence 14) [46E5FA07]
Track 6 accurately ripped (confidence 14) [C4CB7923]
Track 7 accurately ripped (confidence 14) [F99221E9]
Track 8 accurately ripped (confidence 14) [C32FC2A9]
Track 9 accurately ripped (confidence 14) [87BD5624]
Track 10 accurately ripped (confidence 14) [1936123D]
Track 11 accurately ripped (confidence 14) [956B782E]
Track 12 accurately ripped (confidence 14) [C652EDA0]
Track 13 accurately ripped (confidence 14) [45822EFF]
All tracks accurately ripped
End of status report
Catalog No.: SFCD-0049
Label: FIREWALL DIV.
Total Time: 13:20
-Tracklist:
01. NAMAMEKASHIKI ANSOKU, TAMERAI NI HOHOEMI -unplugged- (4:29)
02. CONCEIVED SORROW -unplugged- (4:59)
03. THE PLEDGE -unplugged- (3:51)

log

Exact Audio Copy V0.99 prebeta 5 from 4. May 2009
EAC extraction logfile from 31. July 2011, 18:46
Dir en grey / THE MARROW OF A BONE -UNPLUGGED DISC-
Used drive : PIONEER DVD-RW DVR-212 Adapter: 3 ID: 0
Read mode : Secure
Utilize accurate stream : Yes
Defeat audio cache : Yes
Make use of C2 pointers : No
Read offset correction : 48
Overread into Lead-In and Lead-Out : No
Fill up missing offset samples with silence : Yes
Delete leading and trailing silent blocks : No
Null samples used in CRC calculations : Yes
Used interface : Native Win32 interface for Win NT & 2000
Used output format : User Defined Encoder
Selected bitrate : 1024 kBit/s
Quality : High
Add ID3 tag : No
Command line compressor : C:\Program Files\Exact Audio Copy\Flac\flac.exe
Additional command line options : -T "DATE=%y" -T "GENRE=%m" -8 -V %s
TOC of the extracted CD
Track | Start | Length | Start sector | End sector
---------------------------------------------------------
1 | 0:00.00 | 4:29.63 | 0 | 20237
2 | 4:29.63 | 4:59.30 | 20238 | 42692
3 | 9:29.18 | 3:51.12 | 42693 | 60029
Range status and errors
Selected range
Filename C:\Documents and Settings\Рабочий стол\deg\2007.02.07 - THE MARROW OF A BONE\THE MARROW OF A BONE -UNPLUGGED DISC-.wav
Peak level 97.0 %
Range quality 100.0 %
Test CRC 88724FC7
Copy CRC 88724FC7
Copy OK
No errors occurred
AccurateRip summary
Track 1 accurately ripped (confidence 5) [E729BF52]
Track 2 accurately ripped (confidence 5) [42AA1E4A]
Track 3 accurately ripped (confidence 5) [EF1C5D0E]
All tracks accurately ripped
End of status report

2007.10.24 - DOZING GREEN &#91;CDS&#93;

Catalog No.: SFCD-0051
Label: FIREWALL DIV.
Total Time: 12:14
-Tracklist:
01. DOZING GREEN (4:05)
02. HYDRA 666 (3:35)
03. AGITATED SCREAMS OF MAGGOTS [LIVE] (4:33)

log

Exact Audio Copy V0.99 prebeta 5 from 4. May 2009
EAC extraction logfile from 31. July 2011, 20:28
Dir en grey / DOZING GREEN [CDS]
Used drive : PIONEER DVD-RW DVR-212 Adapter: 3 ID: 0
Read mode : Secure
Utilize accurate stream : Yes
Defeat audio cache : Yes
Make use of C2 pointers : No
Read offset correction : 48
Overread into Lead-In and Lead-Out : No
Fill up missing offset samples with silence : Yes
Delete leading and trailing silent blocks : No
Null samples used in CRC calculations : Yes
Used interface : Native Win32 interface for Win NT & 2000
Used output format : User Defined Encoder
Selected bitrate : 1024 kBit/s
Quality : High
Add ID3 tag : No
Command line compressor : C:\Program Files\Exact Audio Copy\Flac\flac.exe
Additional command line options : -T "DATE=%y" -T "GENRE=%m" -8 -V %s
TOC of the extracted CD
Track | Start | Length | Start sector | End sector
---------------------------------------------------------
1 | 0:00.00 | 4:05.45 | 0 | 18419
2 | 4:05.45 | 3:35.70 | 18420 | 34614
3 | 7:41.40 | 4:33.35 | 34615 | 55124
Range status and errors
Selected range
Filename C:\Documents and Settings\Рабочий стол\deg\2007.10.24 - DOZING GREEN [CDS]\DOZING GREEN [CDS].wav
Peak level 100.0 %
Range quality 100.0 %
Test CRC 5E3CE755
Copy CRC 5E3CE755
Copy OK
No errors occurred
AccurateRip summary
Track 1 not present in database
Track 2 not present in database
Track 3 not present in database
None of the tracks are present in the AccurateRip database
End of status report

2007.12.19 - DECADE 1998-2002 &#91;Compilation&#93; 2CD

Catalog No.: SFCD-0053
Label: FIREWALL DIV.
Total Time: 52:34
-Tracklist:
01. AKURO NO OKA (8:30)
02. Cage (5:37)
03. Schwein NO ISU (3:37)
04. YOKAN (4:45)
05. 304 goushitsu, hakushi no sakura (5:21)
06. Deity (2:40)
07. RASETSUKOKU (3:34)
08. audrey (4:33)
09. MYAKU (4:08)
10. WAKE (5:14)
11. JEALOUS-reverse- (4:29)

log

В ЦЕЛЯХ ЭКОНОМИИ ЗНАКОВ СООБЩЕНИЯ ФАЙЛ DECADE 1998-2002 [DISC I].log СМОТРИТЕ ВО ВТОРОМ СООБЩЕНИИ
Catalog No.: SFCD-0054
Label: FIREWALL DIV.
Total Time: 50:49
-Tracklist:
01. ain't afraid to die (7:11)
02. FILTH (4:56)
03. Bottom of the death valley (5:52)
04. Gyakujou tannou Keloid milk (4:46)
05. -kigan- (4:06)
06. embryo (5:40)
07. -mushi- (6:27)
08. Mr.NEWSMAN (3:52)
09. umbrella (4:06)
10. CHILD PREY (3:48)

log

В ЦЕЛЯХ ЭКОНОМИИ ЗНАКОВ СООБЩЕНИЯ ФАЙЛ DECADE 1998-2002 [DISC II].log СМОТРИТЕ ВО ВТОРОМ СООБЩЕНИИ

2007.12.19 - DECADE 2003-2007 &#91;Compilation&#93;

Catalog No.: SFCD-0055
Label: FIREWALL DIV.
Total Time: 68:13
-Tracklist:
01. OBSCURE (4:01)
02. KASUMI (4:18)
03. THE IIID EMPIRE (3:07)
04. DRAIN AWAY (4:06)
05. SAJOU NO UTA (3:15)
06. audience KILLER LOOP (3:41)
07. -saku- (2:57)
08. dead tree (4:51)
09. Merciless Cult (2:57)
10. KODOU (3:42)
11. C (3:34)
12. THE FINAL (4:16)
13. CLEVER SLEAZOID (3:12)
14. GRIEF (3:39)
15. AGITATED SCREAMS OF MAGGOTS (2:57)
16. RYOUJOKU NO AME (4:03)
17. REPETITION OF HATRED (4:36)
18. CONCEIVED SORROW (4:51)

log

В ЦЕЛЯХ ЭКОНОМИИ ЗНАКОВ СООБЩЕНИЯ ФАЙЛ DECADE 2003-2007.log СМОТРИТЕ ВО ВТОРОМ СООБЩЕНИИ

2008.09.10 - GLASS SKIN &#91;CDS&#93;

Catalog No.: SFCD-0056
Label: FIREWALL DIV.
Total Time: 16:56
-Tracklist:
01. GLASS SKIN (4:30)
02. undecided (4:57)
03. AGITATED SCREAMS OF MAGGOTS -unplugged- (3:08)
04. RYOUJOKU NO AME [LIVE] (4:19)

log

В ЦЕЛЯХ ЭКОНОМИИ ЗНАКОВ СООБЩЕНИЯ ФАЙЛ GLASS SKIN [CDS].log СМОТРИТЕ ВО ВТОРОМ СООБЩЕНИИ

2008.11.12 - UROBOROS &#91;Album&#93; 2CD - Deluxe Limited Version

Catalog No.: SFCD-0058
Label: FIREWALL DIV.
Total Time: 54:22
-Tracklist:
01. SA BIR (2:00)
02. VINUSHKA (9:37)
03. RED SOIL (3:24)
04. DOUKOKU TO SARINU (3:48)
05. TOGURO (3:58)
06. GLASS SKIN (4:28)
07. STUCK MAN (3:35)
08. REIKETSU NARISEBA (3:33)
09. WARE, YAMI TOTE... (7:02)
10. GAIKA, CHINMOKU GA NEMURU KORO (4:22)
11. DOZING GREEN (4:06)
12. INCONVENIENT IDEAL (4:22)

log

Exact Audio Copy V0.99 prebeta 5 from 4. May 2009
EAC extraction logfile from 31. July 2011, 22:15
Dir en grey / UROBOROS
Used drive : PIONEER DVD-RW DVR-212 Adapter: 3 ID: 0
Read mode : Secure
Utilize accurate stream : Yes
Defeat audio cache : Yes
Make use of C2 pointers : No
Read offset correction : 48
Overread into Lead-In and Lead-Out : No
Fill up missing offset samples with silence : Yes
Delete leading and trailing silent blocks : No
Null samples used in CRC calculations : Yes
Used interface : Native Win32 interface for Win NT & 2000
Used output format : User Defined Encoder
Selected bitrate : 1024 kBit/s
Quality : High
Add ID3 tag : No
Command line compressor : C:\Program Files\Exact Audio Copy\Flac\flac.exe
Additional command line options : -T "DATE=%y" -T "GENRE=%m" -8 -V %s
TOC of the extracted CD
Track | Start | Length | Start sector | End sector
---------------------------------------------------------
1 | 0:00.00 | 2:00.74 | 0 | 9073
2 | 2:00.74 | 9:37.15 | 9074 | 52363
3 | 11:38.14 | 3:24.53 | 52364 | 67716
4 | 15:02.67 | 3:48.43 | 67717 | 84859
5 | 18:51.35 | 3:58.36 | 84860 | 102745
6 | 22:49.71 | 4:28.48 | 102746 | 122893
7 | 27:18.44 | 3:35.15 | 122894 | 139033
8 | 30:53.59 | 3:33.53 | 139034 | 155061
9 | 34:27.37 | 7:02.44 | 155062 | 186755
10 | 41:30.06 | 4:44.27 | 186756 | 208082
11 | 46:14.33 | 4:22.62 | 208083 | 227794
12 | 50:37.20 | 4:06.45 | 227795 | 246289
13 | 54:43.65 | 4:22.55 | 246290 | 265994
14 | 61:38.45 | 5:19.24 | 277395 | 301343
Range status and errors
Selected range
Filename C:\Documents and Settings\Рабочий стол\deg\2008.11.12 - UROBOROS\UROBOROS.wav
Peak level 100.0 %
Range quality 100.0 %
Test CRC F6F14F5D
Copy CRC F6F14F5D
Copy OK
No errors occurred
AccurateRip summary
Track 1 accurately ripped (confidence 11) [A9B2B3C6]
Track 2 accurately ripped (confidence 11) [EDDC1495]
Track 3 accurately ripped (confidence 11) [57B1F7A0]
Track 4 accurately ripped (confidence 11) [F0960FCB]
Track 5 accurately ripped (confidence 11) [AC0E1A4F]
Track 6 accurately ripped (confidence 11) [B46315DD]
Track 7 accurately ripped (confidence 11) [D3DF3030]
Track 8 accurately ripped (confidence 11) [43E9210B]
Track 9 accurately ripped (confidence 11) [812F080F]
Track 10 accurately ripped (confidence 11) [AAB437E1]
Track 11 accurately ripped (confidence 11) [C24109F3]
Track 12 accurately ripped (confidence 11) [681AC9EE]
Track 13 accurately ripped (confidence 11) [FC149297]
All tracks accurately ripped
End of status report
Catalog No.: SFCD-0059
Label: FIREWALL DIV.
Total Time: 27:26
-Tracklist:
01. WARE, YAMI TOTE... -unplugged- (6:38)
02. INCONVENIENT IDEAL -unplugged- (4:23)
03. RED SOIL -unplugged- (3:26)
04. DOZING GREEN (Before Construction Ver.) (4:20)
05. DOZING GREEN (Japanese Lyrics Re-mastering) (4:08)
06. GLASS SKIN (Japanese Lyrics Re-mastering) (4:29)

log

Exact Audio Copy V0.99 prebeta 5 from 4. May 2009
EAC extraction logfile from 4. August 2011, 1:37
Dir en grey / UROBOROS -UNPLUGGED DISC-
Used drive : PIONEER DVD-RW DVR-212 Adapter: 3 ID: 0
Read mode : Secure
Utilize accurate stream : Yes
Defeat audio cache : Yes
Make use of C2 pointers : No
Read offset correction : 48
Overread into Lead-In and Lead-Out : No
Fill up missing offset samples with silence : Yes
Delete leading and trailing silent blocks : No
Null samples used in CRC calculations : Yes
Used interface : Native Win32 interface for Win NT & 2000
Used output format : User Defined Encoder
Selected bitrate : 1024 kBit/s
Quality : High
Add ID3 tag : No
Command line compressor : C:\Program Files\Exact Audio Copy\Flac\flac.exe
Additional command line options : -T "DATE=%y" -T "GENRE=%m" -8 -V %s
TOC of the extracted CD
Track | Start | Length | Start sector | End sector
---------------------------------------------------------
1 | 0:00.00 | 6:38.55 | 0 | 29904
2 | 6:38.55 | 4:23.20 | 29905 | 49649
3 | 11:02.00 | 3:26.48 | 49650 | 65147
4 | 14:28.48 | 4:20.00 | 65148 | 84647
5 | 18:48.48 | 4:08.35 | 84648 | 103282
6 | 22:57.08 | 4:29.50 | 103283 | 123507
Range status and errors
Selected range
Filename C:\Documents and Settings\Рабочий стол\deg\2008.11.12 - UROBOROS\UROBOROS -UNPLUGGED DISC-.wav
Peak level 100.0 %
Range quality 100.0 %
Test CRC 95765916
Copy CRC 95765916
Copy OK
No errors occurred
AccurateRip summary
Track 1 accurately ripped (confidence 4) [A097D794]
Track 2 accurately ripped (confidence 4) [F87C2433]
Track 3 accurately ripped (confidence 4) [80226BBD]
Track 4 accurately ripped (confidence 4) [681355FC]
Track 5 accurately ripped (confidence 4) [0A24B1C2]
Track 6 accurately ripped (confidence 4) [A7C53980]
All tracks accurately ripped
End of status report
UROBOROS - Deluxe Limited Version DVD В ОРИГИНАЛЬНОМ КАЧЕСТВЕ МОЖНО СКАЧАТЬ ПО АДРЕСУ
http://rutracker.org/forum/viewtopic.php?t=3689021

2009.04.29 - TOUR08 THE ROSE TRIMS AGAIN &#91;LIVE&#93; DISC III from Initial Limited Version DVD

Catalog No.: SFBD-0019
Label: FIREWALL DIV.
Total Time: 58:28
-Tracklist:
"TOUR08 THE ROSE TRIMS AGAIN" 2008.10.18 Shinkiba STUDIO COAST
01. GRIEF (3:47)
02. DISABLED COMPLEXES (4:12)
03. Merciless Cult (3:09)
04. audience KILLER LOOP (3:47)
05. LIE BURIED WITH A VENGEANCE (2:50)
06. THE DEEPER VILENESS (3:48)
07. undecided (5:24)
08. GLASS SKIN (4:42)
"UROBOROS -breathing-" 2008.12.29 Osaka-jo Hall
09. RYOUJOKU NO AME (4:05)
10. CONCEIVED SORROW (4:56)
11. DOZING GREEN (4:04)
12. GAIKA, CHINMOKU GA NEMURU KORO (4:25)
13. REPETITION OF HATRED (5:10)
14. Mr.NEWSMAN (4:04)

log

В ЦЕЛЯХ ЭКОНОМИИ ЗНАКОВ СООБЩЕНИЯ ФАЙЛ TOUR08 THE ROSE TRIMS AGAIN [LIVE].log СМОТРИТЕ ВО ВТОРОМ СООБЩЕНИИ

2009.12.02 - Hageshisa to, kono mune no naka de karamitsuita shakunetsu no yami &#91;CDS&#93;

Catalog No.: SFCD-0066
Label: FIREWALL DIV.
Total Time: 13:02
-Tracklist:
01. Hageshisa to, kono mune no naka de karamitsuita shakunetsu no yami (4:03)
02. ZAN (4:32)
03. SHOKUBENI (Shot In One Take) (4:26)

log

Exact Audio Copy V0.99 prebeta 5 from 4. May 2009
EAC extraction logfile from 31. July 2011, 20:58
Dir en grey / Hageshisa to, kono mune no naka de karamitsuita shakunetsu no yami [CDS]
Used drive : PIONEER DVD-RW DVR-212 Adapter: 3 ID: 0
Read mode : Secure
Utilize accurate stream : Yes
Defeat audio cache : Yes
Make use of C2 pointers : No
Read offset correction : 48
Overread into Lead-In and Lead-Out : No
Fill up missing offset samples with silence : Yes
Delete leading and trailing silent blocks : No
Null samples used in CRC calculations : Yes
Used interface : Native Win32 interface for Win NT & 2000
Used output format : User Defined Encoder
Selected bitrate : 1024 kBit/s
Quality : High
Add ID3 tag : No
Command line compressor : C:\Program Files\Exact Audio Copy\Flac\flac.exe
Additional command line options : -T "DATE=%y" -T "GENRE=%m" -8 -V %s
TOC of the extracted CD
Track | Start | Length | Start sector | End sector
---------------------------------------------------------
1 | 0:00.00 | 4:03.66 | 0 | 18290
2 | 4:03.66 | 4:32.11 | 18291 | 38701
3 | 8:36.02 | 4:26.38 | 38702 | 58689
Range status and errors
Selected range
Filename C:\Documents and Settings\Рабочий стол\deg\2009.12.02 - Hageshisa to, kono mune no naka de karamitsuita shakunetsu no yami [CDS]\Hageshisa to, kono mune no naka de karamitsuita shakunetsu no yami [CDS].wav
Peak level 100.0 %
Range quality 100.0 %
Test CRC 44D5AFE8
Copy CRC 44D5AFE8
Copy OK
No errors occurred
AccurateRip summary
Track 1 accurately ripped (confidence 3) [B67E794F]
Track 2 accurately ripped (confidence 4) [2463A21A]
Track 3 accurately ripped (confidence 4) [03FE76F1]
All tracks accurately ripped
End of status report

2010.05.26 - UROBOROS -with the proof in the name of living...- AT NIPPON BUDOKAN &#91;LIVE&#93; DISC IV from Initial Limited Version DVD

Catalog No.: SFBD-0025
Label: FIREWALL DIV.
Total Time: 68:41
-Tracklist:
01. SA BIR (3:59)
02. GAIKA, CHINMOKU GA NEMURU KORO (4:18)
03. TOGURO (3:47)
04. INWARD SCREAM (1:26)
05. HYDRA 666 (3:39)
06. INCONVENIENT IDEAL (4:34)
07. CONCEIVED SORROW (4:57)
08. RASETSUKOKU (4:17)
09. WARE, YAMI TOTE... (6:15)
10. OBSCURE (4:00)
11. DOUKOKU TO SARINU (4:09)
12. DOZING GREEN (3:54)
13. ZAN (4:25)
14. Hageshisa to, kono mune no naka de karamitsuita shakunetsu no yami (5:04)
15. VINUSHKA (9:49)

log

В ЦЕЛЯХ ЭКОНОМИИ ЗНАКОВ СООБЩЕНИЯ ФАЙЛ UROBOROS -with the proof in the name of living...- AT NIPPON BUDOKAN [LIVE].log СМОТРИТЕ ВО ВТОРОМ СООБЩЕНИИ
3 DVD ЭТОГО РЕЛИЗА В ОРИГИНАЛЬНОМ КАЧЕСТВЕ МОЖНО СКАЧАТЬ ПО АДРЕСУ
http://rutracker.org/forum/viewtopic.php?t=2988073

2011.01.26 - LOTUS &#91;CDS&#93;

Catalog No.: SFCD-0074
Label: FIREWALL DIV.
Total Time: 11:34
-Tracklist:
01. LOTUS (4:01)
02. OBSCURE (3:34)
03. REIKETSU NARISEBA [LIVE] (3:58)

log

В ЦЕЛЯХ ЭКОНОМИИ ЗНАКОВ СООБЩЕНИЯ ФАЙЛ LOTUS [CDS].log СМОТРИТЕ ВО ВТОРОМ СООБЩЕНИИ

2011.06.22 - DIFFERENT SENSE &#91;CDS&#93;

Catalog No.: SFCD-0084
Label: FIREWALL DIV.
Total Time: 13:41
-Tracklist:
01. DIFFERENT SENSE (5:04)
02. TSUMI TO KISEI (5:04)
03. RED SOIL [LIVE] (3:32)

log

В ЦЕЛЯХ ЭКОНОМИИ ЗНАКОВ СООБЩЕНИЯ ФАЙЛ DIFFERENT SENSE [CDS].log СМОТРИТЕ ВО ВТОРОМ СООБЩЕНИИ

2011.07.22 - AMON &#91;CD&#93;

Catalog No.: 978-4-7966-8477-4
Label: Takarajimasha
Total Time: 9:13
-Tracklist:
01. AMON (4:06)
02. ZAN -Wizardry Ver.- (5:07)

log

В ЦЕЛЯХ ЭКОНОМИИ ЗНАКОВ СООБЩЕНИЯ ФАЙЛ AMON [CD].log СМОТРИТЕ ВО ВТОРОМ СООБЩЕНИИ

2011.08.03 - DUM SPIRO SPERO &#91;Album&#93; 2CD - Deluxe Limited Version

Catalog No.: SFCD-0092
Label: FIREWALL DIV.
Total Time: 66:17
-Tracklist:
01. KYOUKOTSU NO NARI (2:00)
02. THE BLOSSOMING BEELZEBUB (7:32)
03. DIFFERENT SENSE (5:03)
04. AMON (4:03)
05. [YOKUSOU NI DREAMBOX] ARUIWA SEIJUKU NO RINEN TO TSUMETAI AME (4:49)
06. JUUYOKU (3:28)
07. SHITATARU MOUROU (4:02)
08. LOTUS (4:03)
09. DIABOLOS (9:52)
10. AKATSUKI (3:33)
11. DECAYED CROW (3:48)
12. Hageshisa to, kono mune no naka de karamitsuita shakunetsu no yami (4:03)
13. VANITAS (5:27)
14. RUTEN NO TOU (4:27)

log

В ЦЕЛЯХ ЭКОНОМИИ ЗНАКОВ СООБЩЕНИЯ ФАЙЛ DUM SPIRO SPERO.log СМОТРИТЕ ВО ВТОРОМ СООБЩЕНИИ
Catalog No.: SFCD-0093
Label: FIREWALL DIV.
Total Time: 46:41
-Tracklist:
01. RASETSUKOKU (4:40)
02. AMON (Symphonic Ver.) (5:01)
03. RUTEN NO TOU (Unplugged Ver.) (4:56)
04. DIABOLOS (Demo2010, Short Ver.) (5:00)
05. AKATSUKI (Demo2010) (3:28)
06. THE BLOSSOMING BEELZEBUB (Remix) (6:23)
07. [YOKUSOU NI DREAMBOX] ARUIWA SEIJUKU NO RINEN TO TSUMETAI AME (Remix) (5:19)
08. SHITATARU MOUROU (Remix) (3:47)
09. AKATSUKI (Remix) (4:22)
10. DECAYED CROW (Remix) (3:39)

log

В ЦЕЛЯХ ЭКОНОМИИ ЗНАКОВ СООБЩЕНИЯ ФАЙЛ DUM SPIRO SPERO -AUDIO DISC-.log СМОТРИТЕ ВО ВТОРОМ СООБЩЕНИИ
DUM SPIRO SPERO - Deluxe Limited Version DVD В ОРИГИНАЛЬНОМ КАЧЕСТВЕ МОЖНО СКАЧАТЬ ПО АДРЕСУ
http://rutracker.org/forum/viewtopic.php?t=3686531

2012.12.19 - RINKAKU &#91;CDS&#93;

Catalog No.: SFCD-0107 / SFCD-0109 / SFCD-0111
Label: FIREWALL DIV.
Total Time: 15:03
-Tracklist:
01. RINKAKU (5:42)
02. Kiri To Mayu (3:58)
03. RINKAKU Eternal Slumber Mix (Remixed by Akira Yamaoka) (5:22)

log

В ЦЕЛЯХ ЭКОНОМИИ ЗНАКОВ СООБЩЕНИЯ ФАЙЛ RINKAKU [CDS].log СМОТРИТЕ ВО ВТОРОМ СООБЩЕНИИ

2013.04.03 - THE UNRAVELING &#91;EP&#93; 2CD - Initial Limited Version

Catalog No.: SFCD-00117
Label: FIREWALL DIV.
Total Time: 33:37
-Tracklist:
01. Unraveling (4:42)
02. KARMA (3:43)
03. KASUMI (4:08)
04. KARASU (5:36)
05. Bottom of the death valley (6:25)
06. Unknown.Despair.Lost (4:47)
07. THE FINAL (4:15)

log

В ЦЕЛЯХ ЭКОНОМИИ ЗНАКОВ СООБЩЕНИЯ ФАЙЛ THE UNRAVELING [EP] DISC I.log СМОТРИТЕ ВО ВТОРОМ СООБЩЕНИИ
Catalog No.: SFCD-00118
Label: FIREWALL DIV.
Total Time: 27:12
-Tracklist:
01. MACABRE (16:18)
02. Unraveling (Unplugged Ver.) (5:03)
03. THE FINAL (Unplugged Ver.) (5:50)

log

В ЦЕЛЯХ ЭКОНОМИИ ЗНАКОВ СООБЩЕНИЯ ФАЙЛ THE UNRAVELING [EP] DISC II.log СМОТРИТЕ ВО ВТОРОМ СООБЩЕНИИ

2014.01.22 - SUSTAIN THE UNTRUTH &#91;CDS&#93;

Catalog No.: SFCD-0128 / SFCD-0130 / SFCD-0132
Label: FIREWALL DIV.
Total Time: 13:45
-Tracklist:
01. SUSTAIN THE UNTRUTH (4:28)
02. Ruten No Tou (Acoustic Ver.) (4:32)
03. GAIKA, CHINMOKU GA NEMURU KORO [LIVE] (4:45)

log

В ЦЕЛЯХ ЭКОНОМИИ ЗНАКОВ СООБЩЕНИЯ ФАЙЛ SUSTAIN THE UNTRUTH [CDS].log СМОТРИТЕ ВО ВТОРОМ СООБЩЕНИИ

2014.07.16 - DUM SPIRO SPERO AT NIPPON BUDOKAN &#91;CD&#93; DISC IV from Initial Limited Version DVD / DISC III from Initial Limited Version Blu-Ray

Catalog No.: SFBD-0055 / SFXD-0010
Label: FIREWALL DIV.
Total Time: 72:11
-Tracklist:
01. THE BLOSSOMING BEELZEBUB (Symphonic Ver.) (7:31)
02. DIFFERENT SENSE (Unplugged Ver.) (5:05)
03. AMON (Crossover Ver.) (4:20)
04. "Yokusou Ni DREAMBOX" Aruiwa Seijuku No Rinen To Tsumetai Ame (Crossover Ver.) (4:49)
05. JUUYOKU (Unplugged Ver.) (3:33)
06. Shitataru Mourou (Experimental Remix by Yutaka Aoki [downy]) (4:19)
07. LOTUS (Symphonic Ver.) (4:57)
08. DIABOLOS (Symphonic Ver.) (10:09)
09. AKATSUKI (Symphonic Ver.) (3:38)
10. DECAYED CROW (Remix by NARASAKI) (9:15)
11. Hageshisa To, Kono Mune No Naka De Karamitsuita Shakunetsu No Yami (Symphonic Ver.) (4:24)
12. VANITAS (LOS AWKIS Folklore Ver.) (5:38)
13. Ruten No Tou (Acoustic Ver.) (4:28)

log

В ЦЕЛЯХ ЭКОНОМИИ ЗНАКОВ СООБЩЕНИЯ ФАЙЛ DUM SPIRO SPERO AT NIPPON BUDOKAN [CD].log СМОТРИТЕ ВО ВТОРОМ СООБЩЕНИИ

2014.12.10 - ARCHE &#91;Album&#93; 2CD - Deluxe Limited Version

Catalog No.: SFCD-0136 / SFCD-0139 / SFCD-0142 / SFCD-0144
Label: FIREWALL DIV.
Total Time: 68:06
-Tracklist:
01. Un deux (3:33)
02. Soshaki (4:10)
03. Uroko (4:03)
04. Phenomenon (4:01)
05. Cause of fickleness (3:25)
06. Tousei (5:31)
07. Rinkaku (5:43)
08. Chain repulsion (2:48)
09. Midwife (4:11)
10. Magayasou (4:25)
11. Kaishun (4:21)
12. Behind a vacant image (4:59)
13. Sustain the untruth (4:25)
14. Kukoku no kyouon (5:48)
15. The inferno (3:15)
16. Revelation of mankind (3:23)

log

В ЦЕЛЯХ ЭКОНОМИИ ЗНАКОВ СООБЩЕНИЯ ФАЙЛ ARCHE.log СМОТРИТЕ ВО ВТОРОМ СООБЩЕНИИ
Catalog No.: SFCD-0137 / SFCD-0140
Label: FIREWALL DIV.
Total Time: 30:39
-Tracklist:
01. and Zero (2:25)
02. Tefu Tefu (4:47)
03. Sustain the untruth [REMIX] (6:16)
04. Unraveling [REMIX] (3:33)
05. Soshuaku (Acoustic Ver.) (5:02)
06. Uroko (Crossover Ver.) (3:39)
07. Behind a vacant image (Acoustic Ver.) (4:55)

log

В ЦЕЛЯХ ЭКОНОМИИ ЗНАКОВ СООБЩЕНИЯ ФАЙЛ ARCHE BONUS.log СМОТРИТЕ ВО ВТОРОМ СООБЩЕНИИ

2015.03.15 - TOUR14 PSYCHONNECT -mode of GAUZE? &#91;CD&#93; DISC III from Initial Limited Version DVD / DISC II from Initial Limited Version Blu-Ray

Catalog No.: SK-018D
Label: FIREWALL DIV.
Total Time: 61:42
-Tracklist:
01. GAUZE -mode of adam- (2:18)
02. YURAMEKI (5:43)
03. MASK (Crossover Ver.) (3:56)
04. Cage (5:45)
05. AKURO NO OKA (8:39)
06. mazohyst of decadence (6:27)
07. 304 goushitsu, hakushi no sakura (5:12)
08. raison detre (4:56)
09. Schwein NO ISU (3:44)
10. TSUMI TO BATSU (5:14)
11. ZAN (5:16)
12. YOKAN (4:25)

log

В ЦЕЛЯХ ЭКОНОМИИ ЗНАКОВ СООБЩЕНИЯ ФАЙЛ TOUR14 PSYCHONNECT -mode of GAUZE [CD].log СМОТРИТЕ ВО ВТОРОМ СООБЩЕНИИ

2016.07.27 - UTAFUMI &#91;CDS&#93;

Catalog No.: SFCD-0193 \ SFCD-0195 \ SFCD-0197 \ SFCD-0199
Label: FIREWALL DIV.
Total Time: 13:08
-Tracklist:
01. UTAFUMI (3:10)
02. KUUKOKU NO KYOUON feat. SUGIZO (5:59)
03. Revelation of mankind [REMIX] by Yusuke Suga (3:59)

log

В ЦЕЛЯХ ЭКОНОМИИ ЗНАКОВ СООБЩЕНИЯ ФАЙЛ UTAFUMI [CDS].log СМОТРИТЕ ВО ВТОРОМ СООБЩЕНИИ

2018.01.02 - VESTIGE OF SCRATCHES &#91;Compilation&#93; 3CD

Catalog No.: SFCD-0211 \ SFCD-0215 \ SFCD-0219
Label: FIREWALL DIV.
Total Time: 68:30
-Tracklist:
01. I'll (4:31)
02. AKURO NO OKA (8:37)
03. YURAMEKI (5:09)
04. Cage (5:37)
05. YOKAN (4:47)
06. MYAKU (Single version) (4:28)
07. WAKE (5:13)
08. TAIYOU NO AO (6:05)
09. ain't afraid to die (7:13)
10. FILTH (4:58)
11. -mushi- (6:29)
12. FUKAI (VESTIGE OF SCRATCHES version) (5:17)

log

В ЦЕЛЯХ ЭКОНОМИИ ЗНАКОВ СООБЩЕНИЯ ФАЙЛ VESTIGE OF SCRATCHES [DISC I].log СМОТРИТЕ ВО ВТОРОМ СООБЩЕНИИ
Catalog No.: SFCD-0212 \ SFCD-0216 \ SFCD-0220
Label: FIREWALL DIV.
Total Time: 69:44
-Tracklist:
01. JESSICA (4:14)
02. umbrella (4:07)
03. audience KILLER LOOP (3:41)
04. CHILD PREY (3:51)
05. DRAIN AWAY (4:05)
06. dead tree (4:51)
07. -saku- (2:58)
08. C (3:34)
09. KODOU (3:42)
10. DOZING GREEN (Japanese version) (4:09)
11. AGITATED SCREAMS OF MAGGOTS (2:57)
12. NAMAMEKASHIKI ANSOKU, TAMERAI NI HOHOEMI (4:38)
13. CLEVER SLEAZOID (2:54)
14. WARE, YAMI TOTE... (7:03)
15. VINUSHKA (9:41)
16. THE IIID EMPIRE (VESTIGE OF SCRATCHES version) (3:09)

log

В ЦЕЛЯХ ЭКОНОМИИ ЗНАКОВ СООБЩЕНИЯ ФАЙЛЫ VESTIGE OF SCRATCHES [DISC II].log СМОТРИТЕ ВО ВТОРОМ СООБЩЕНИИ
Catalog No.: SFCD-0213 \ SFCD-0217 \ SFCD-0221
Label: FIREWALL DIV.
Total Time: 66:22
-Tracklist:
01. Kiri To Mayu (RINKAKU [CDS] version) (3:55)
02. ZAN (Hageshisa to, kono mune no naka de karamitsuita shakunetsu no yami [CDS] version) (4:32)
03. Tsumi To Kisei (5:05)
04. RASETSUKOKU (DUM SPIRO SPERO bonus CD version) (4:37)
05. KASUMI (THE UNRAELING [EP] version) (4:08)
06. OBSCURE (LOTUS [CDS] version) (3:35)
07. THE FINAL (THE UNRAELING [EP] version) (4:16)
08. DIFFERENT SENSE (5:06)
09. Hageshisa To, Kono Mune No Naka De Karamitsuita Shakunetsu No Yami (4:03)
10. LOTUS (4:03)
11. RINKAKU (5:43)
12. Revelation of mankind (3:23)
13. Sustain the untruth (4:26)
14. Un deux (3:35)
15. UTAFUMI (3:10)
16. Beautiful Dirt (VESTIGE OF SCRATCHES version) (2:37)

log

В ЦЕЛЯХ ЭКОНОМИИ ЗНАКОВ СООБЩЕНИЯ ФАЙЛЫ VESTIGE OF SCRATCHES [DISC III].log СМОТРИТЕ ВО ВТОРОМ СООБЩЕНИИ
Добавлены диски VESTIGE OF SCRATCHES [Compilation] - ПЕРЕКАЧАЙТЕ ФАЙЛ ТОРРЕНТА ЗАНОВО
[cybertorrent.ru].t19674.torrent 
Торрент: Зарегистрирован [ 2018-03-01 01:10 ] · 49A06C3A98517E08680DC0BCB20AD411E14C6991

Скачать .torrent

Скачать

96 KB

Статус: проверено
Скачан: 0 раз
Размер: 14,15 GB
terms.php
[Профиль] [ЛС]
Показать сообщения:    
Ответить на тему

Текущее время: 22-Фев 03:49

Часовой пояс: UTC + 3



Вы не можете начинать темы
Вы не можете отвечать на сообщения
Вы не можете редактировать свои сообщения
Вы не можете удалять свои сообщения
Вы не можете голосовать в опросах
Вы не можете прикреплять файлы к сообщениям
Вы можете скачивать файлы