Статистика раздачи
Размер:  7,9 GB   |    Зарегистрирован:  7 месяцев 5 дней   |    Скачан:  0 раз

Полного источника не было: Никогда

 
   
 
 

DR_KTO ®

Пол:
Не указан
Стаж:
7 месяцев 5 дней
Сообщений:
105

-Симпсоны / The Simpsons- Страна: США
Жанр: Мультфильм, комедия
Продолжительность: 21мин
Год выпуска: 2013-2014
Перевод:
Профессиональный многоголосый закадровый 2х2
Профессиональный многоголосый закадровый VO-production
Русские субтитры: есть-Создатель: Мэтт Гроунинг / Matt Groening-Роли озвучивали: Дэн Кастелланета, Джули Кавнер, Нэнси Картрайт, Ярдли Смит, Гарри Ширер, Хэнк Азария, Памела Хейден, Тресс МакНилл, Карл Видерготт, Мэгги Росвэлл и др.-Описание: Симпсоны живут в вымышленном городе Спрингфилд, со своим обществом и историей. Гомер - отец семейства, который дает плохие советы и работает инспектором безопасности на атомной электростанции; Мардж - любящая мать и жена, старается сохранить спокойствие в семье; Барт - 10 летний хулиган; Лиза - философский 8-летний ребенок; и Мэгги - младенец, который общается посредством соски.-Ссылка на предыдущие и альтернативные раздачи /Сэмпл-Спасибо ALEKS KV, Den.S-92, 4erkov, Xottabi4, #Antisnl# за звук, notabenoid за субтитры и SerGoLeOne за синхронизацию дорожки 2х2.-Качество: WEB-DLRip(Исходник WEB-DL 720p)
Формат: AVI
Видео: 720x400 (1.80:1), 23.976 fps, XviD build 65 ~1800 kbps avg, 0.29 bit/pixel
Аудио Rus: 48 kHz, AC3 Dolby Digital, 2/0 (L,R) ch, ~192 kbps (2x2)
Аудио Rus: 48 kHz, AC3 Dolby Digital, 2/0 (L,R) ch, ~192 kbps (VO-production)
Аудио Eng: 48 kHz, AC3 Dolby Digital, 2/0 (L,R) ch, ~192 kbps
Субтитры: Русские, Английские-

Подробные технические данные

General
Complete name : F:\Сериалы\The Simpsons.Season 25\The Simpsons.s25e01.avi
Format : AVI
Format/Info : Audio Video Interleave
File size : 364 MiB
Duration : 21mn 13s
Overall bit rate : 2 395 Kbps
Writing application : VirtualDubMod 1.5.10.2 (build 2540/release)
Writing library : VirtualDubMod build 2540/release
Video
ID : 0
Format : MPEG-4 Visual
Format profile : Advanced Simple@L5
Format settings, BVOP : 1
Format settings, QPel : No
Format settings, GMC : No warppoints
Format settings, Matrix : Default (MPEG)
Codec ID : XVID
Codec ID/Hint : XviD
Duration : 21mn 13s
Bit rate : 1 800 Kbps
Width : 720 pixels
Height : 400 pixels
Display aspect ratio : 16:9
Frame rate : 23.976 fps
Color space : YUV
Chroma subsampling : 4:2:0
Bit depth : 8 bits
Scan type : Progressive
Compression mode : Lossy
Bits/(Pixel*Frame) : 0.261
Stream size : 273 MiB (75%)
Writing library : XviD 65
Audio #1
ID : 1
Format : AC-3
Format/Info : Audio Coding 3
Mode extension : CM (complete main)
Format settings, Endianness : Big
Codec ID : 2000
Duration : 21mn 13s
Bit rate mode : Constant
Bit rate : 192 Kbps
Channel(s) : 2 channels
Channel positions : Front: L R
Sampling rate : 48.0 KHz
Bit depth : 16 bits
Compression mode : Lossy
Stream size : 29.2 MiB (8%)
Alignment : Split accross interleaves
Interleave, duration : 42 ms (1.00 video frame)
Interleave, preload duration : 500 ms
Audio #2
ID : 2
Format : AC-3
Format/Info : Audio Coding 3
Mode extension : CM (complete main)
Format settings, Endianness : Big
Codec ID : 2000
Duration : 21mn 11s
Bit rate mode : Constant
Bit rate : 192 Kbps
Channel(s) : 2 channels
Channel positions : Front: L R
Sampling rate : 48.0 KHz
Bit depth : 16 bits
Compression mode : Lossy
Stream size : 29.1 MiB (8%)
Alignment : Split accross interleaves
Interleave, duration : 42 ms (1.00 video frame)
Interleave, preload duration : 500 ms
Audio #3
ID : 3
Format : AC-3
Format/Info : Audio Coding 3
Mode extension : CM (complete main)
Format settings, Endianness : Big
Codec ID : 2000
Duration : 21mn 13s
Bit rate mode : Constant
Bit rate : 192 Kbps
Channel(s) : 2 channels
Channel positions : Front: L R
Sampling rate : 48.0 KHz
Bit depth : 16 bits
Compression mode : Lossy
Stream size : 29.2 MiB (8%)
Alignment : Split accross interleaves
Interleave, duration : 42 ms (1.00 video frame)
Interleave, preload duration : 500 ms

Скриншоты

Список серий

1. Гомерлэнд (Homerland)
2. Дом ужасов 24 (Treehouse of Horror XXIV)
3. Четыре сожаления и похороны (Four Regrettings and a Funeral)
4. Живём Лишь Раз (YOLO)
5. Роды (Labor Pains)
6. Ребёнок в порядке (The Kid Is All Right)
7. Жёлтая уловка (Yellow Subterfuge)
8. Белый рождественский блюз (White Christmas Blues)
9. Соприте эту серию (Steal This Episode)
10. Замужем за бесформенной массой (Married to the Blob)
11. Очки в Большом Городе (Specs and the City)
12. Диггс (Diggs)
13. Человек, который многое в себе изменил (The Man Who Grew Too Much)
14. Содержание его зимой (The Winter of His Content)
15. Война искусства (The War of Art)
16. Жизнь судьи не для тебя (You Don’t Have to Live Like a Referee)
17. Лукас (Luca$)
18. Дни далёкого будущего (Days of Future Future)
19. Что можно ожитать от Барта (What to Expect When Bart’s Expecting)
20. Такой же, как я (Brick Like Me)
21. Дружба за деньги (Pay Pal)
22. Жёлтизна залог трусости (The Yellow Badge of Cowardge)

Внимание! Раздача ведётся путём добавления новых серий

Внимание! Раздача ведётся путём добавления новых серий; при каждом добавлении создётся новый торрент. Чтобы начать докачку новой серии, пользователям необходимо сделать следующее:
(1) остановить скачивание,
(2) удалить старый торрент у себя из клиента (старые серии удалять не надо),
(3) скачать новый торрент и запустить его у себя в клиенте вместо старого, при этом указать клиенту путь в старую папку куда и должно происходить скачивание новых серий.
Ваш клиент при этом должен произвести хеширование (проверку) старой папки (если не производит сам - помогите ему сделать это), и будет докачивать только те серии которых у вас ещё нет. Старые серии при этом не удаляются, а продолжают раздаваться!
Eсли вы уже удалили старые серии, то предотвратить повторную закачку старых серий можно, отжав галочку в соответсвующих местах при запуске нового торрента. По возможности, желательно не удалять старые серии как можно дольше чтобы релизёр не столько продолжал раздавать старые серии, а смог сконцентрироваться на новых.
-
[cybertorrent.ru].t1968.torrent 
Торрент: Зарегистрирован [ 2018-02-16 08:44 ] · 1F66E474FD86C9E0AACBC6D7E9B9DB80CADC7180

Скачать .torrent

Скачать

25 KB

Статус: проверено
Скачан: 0 раз
Размер: 7,9 GB
Профиль [ЛС]
Показать сообщения:    

Текущее время: 21-Сен 09:40

Часовой пояс: UTC ± 0



Вы не можете начинать темы
Вы не можете отвечать на сообщения
Вы не можете редактировать свои сообщения
Вы не можете удалять свои сообщения
Вы не можете голосовать в опросах
Вы не можете прикреплять файлы к сообщениям
Вы можете скачивать файлы
Torrents24.ru открытый BitTorrent Torrents24.pl открытый BitTorrent CyberTorrent.ru открытый BitTorrent BtList.ru рейтинг BitTorrent трекеров Яндекс.Метрика